Мистер Холмс / Mr. Holmes (Билл Кондон) [2015, Великобритания, США, Детектив, Драма, BDRip] DVO

Ответить на тему
 

Hurracan ®

Стаж: 2 года 2 месяца

Сообщений: 79

Симпатии: 80

Мистер Холмс / Mr. Holmes
Страна: Великобритания, США
Жанр: Детектив, Драма
Год выпуска: 2015
Продолжительность: 01:43:44
Перевод: Любительский (двухголосый) paradox & omskbird records
Cубтитры: нет
Режиссер: Билл Кондон
В ролях: Иэн МакКеллен, Лора Линни, Роджер Аллам, Фрэнсис де ла Тур, Хироюки Санада, Патрик Кеннеди, Филип Дэвис, Хэтти Морахэн, Майло Паркер, Чарльз Мэддокс
Описание: Действие развернется в 1947 году, а речь в фильме пойдет об отошедшем от дел Шерлоке Холмсе, живущем в сонной деревушке в Сассексе вместе с горничной миссис Манро и сыном, который занимается сыском в качестве хобби. Несмотря на уединенный образ жизни, знаменитому сыщику с Бейкер-стрит по-прежнему не дает покоя тайна так и нераскрытого 30 лет назад дела.
Доп. информация:
Сценаристы: Артур Конан Дойл, Джеффри Хэтчер, Митч Каллин
Продюсеры: Эмиль Шерман, Эйн Каннинг, Энн Кэри
Рейтинг КиноПоиск.Ru: 7.057 (1150)
Рейтинг IMDb: 7.1 (17150)
Качество видео: BDRip
Формат видео: AVI
Видео: Xvid 720x304 (12:5) 23.976fps 2175kbps
Аудио: Dolby AC3 48000Hz stereo 192kbps
Аудио 2: Dolby AC3 48000Hz 6ch 448kbps

MediaInfo

General
Complete name : C:\Users\Hurracan\Downloads\Video\Mr.Holmes.2015.BDRip.avi
Format : AVI
Format/Info : Audio Video Interleave
Format profile : OpenDML
File size : 2.05 GiB
Duration : 1h 43mn
Overall bit rate : 2 832 Kbps
Movie name : Mr. Holmes 2015 @ NNM-Club
Writing application : XviD4PSP 6.0 / 54.29.105
Video
ID : 0
Format : xvid
Codec ID : xvid
Duration : 1h 43mn
Bit rate : 2 175 Kbps
Width : 720 pixels
Height : 304 pixels
Display aspect ratio : 2.40:1
Frame rate : 23.976 fps
Bits/(Pixel*Frame) : 0.414
Stream size : 1.58 GiB (77%)
Audio #1
ID : 1
Format : AC-3
Format/Info : Audio Coding 3
Mode extension : CM (complete main)
Format settings, Endianness : Big
Codec ID : 2000
Duration : 1h 43mn
Bit rate mode : Constant
Bit rate : 192 Kbps
Channel(s) : 2 channels
Channel positions : Front: L R
Sampling rate : 48.0 KHz
Bit depth : 16 bits
Compression mode : Lossy
Stream size : 142 MiB (7%)
Alignment : Aligned on interleaves
Interleave, duration : 32 ms (0.77 video frame)
Audio #2
ID : 2
Format : AC-3
Format/Info : Audio Coding 3
Mode extension : CM (complete main)
Format settings, Endianness : Big
Codec ID : 2000
Duration : 1h 43mn
Bit rate mode : Constant
Bit rate : 448 Kbps
Channel(s) : 6 channels
Channel positions : Front: L C R, Side: L R, LFE
Sampling rate : 48.0 KHz
Bit depth : 16 bits
Compression mode : Lossy
Stream size : 332 MiB (16%)
Alignment : Aligned on interleaves
Interleave, duration : 32 ms (0.77 video frame)

Скриншоты





Последний раз редактировалось: Hurracan (2015-11-07 01:04), всего редактировалось 1 раз

Создавать темы 05-Ноя-2015 10:05

[Профиль]  [ЛС] 

totsamiy

Стаж: 5 лет 5 месяцев

Сообщений: 145

Симпатии: 22

Перевод: любительский (многоголосый) paradox & omskbird records

Создавать темы 05-Ноя-2015 20:22

[Профиль]  [ЛС] 

Hurracan ®

Стаж: 2 года 2 месяца

Сообщений: 79

Симпатии: 80

957337
Перевод: любительский (многоголосый) paradox & omskbird records
Вроде проф. перевод же

Создавать темы 05-Ноя-2015 22:16

[Профиль]  [ЛС] 

igor1968

Стаж: 5 лет 8 месяцев

Сообщений: 366

Симпатии: 197

Спасибо!

Создавать темы 08-Ноя-2015 00:43

[Профиль]  [ЛС] 

Dev1Scream

Стаж: 4 года 10 месяцев

Сообщений: 61

Симпатии: 3

скорости пожалуйста, вообще не качает

Создавать темы 05-Авг-2016 11:04

[Профиль]  [ЛС] 
Показать сообщения:    
Ответить на тему

Текущее время: 25-Ноя 07:11

Часовой пояс: UTC + 5



Вы не можете начинать темы
Вы не можете отвечать на сообщения
Вы не можете редактировать свои сообщения
Вы не можете удалять свои сообщения
Вы не можете голосовать в опросах
Вы не можете прикреплять файлы к сообщениям
Вы не можете скачивать файлы