Крысятник / Sitcom (Франсуа Озон / Francois Ozon) [1998, Франция, триллер, драма, комедия, DVDRip] MVO + original

Тема закрыта
 

kat222000 ®

Стаж: 6 лет 6 месяцев

Сообщений: 608

Симпатии: 1055

-Крысятник / Sitcom-Страна: Франция
Жанр: триллер, драма, комедия
Год выпуска: 1998
Продолжительность: 01:14:40
Перевод: Профессиональный (многоголосый закадровый)
Оригинальная аудиодорожка: французский
Cубтитры: нет-Режиссер: Франсуа Озон / Francois Ozon-В ролях: Эвелин Дандри, Франсуа Марторе, Марина Де Ван, Эдриан Де Ван, Стефан Ридо и др.-Описание: Скромное обаяние буржуазной семьи разрушается с появлением в доме лабораторной крысы, подаренной детям главой семейства. Общение с животным разрушает гармонию домочадцев, рождая в душе порок.
Сын становится гомосексуалистом, у дочери появляется садомазахистские склонности, дополненные суицидальным синдромом, у матери просыпается комплекс Электры, и лишь отец остается сторонним наблюдателем происходящего. Но и его коснется мощная энергетика маленького «безобидного» животного.- -Возраст: зрителям, достигшим 18 лет-Качество видео: DVDRip
Формат видео: AVI
Видео кодек: DivX 5
Аудио кодек: AC3
Видео: DivX 5, 656x392, 25fps, 2 030kbps
Аудио 1: Dolby AC3, 48000Hz, 6 ch, 384kbps (русский)
Аудио 2: Dolby AC3, 48000Hz, 2 ch, 192kbps (французский)-

MediaInfo

General
Format : AVI
Format/Info : Audio Video Interleave
File size : 1.37 GiB
Duration : 1h 14mn
Overall bit rate : 2 621 Kbps
Writing application : VirtualDubMod 1.5.10.2 (build 2540/release)
Writing library : VirtualDubMod build 2540/release
Video
ID : 0
Format : MPEG-4 Visual
Format settings, BVOP : Yes
Format settings, QPel : No
Format settings, GMC : No warppoints
Format settings, Matrix : Default (H.263)
Codec ID : DX50
Codec ID/Hint : DivX 5
Duration : 1h 14mn
Bit rate : 2 031 Kbps
Width : 656 pixels
Height : 392 pixels
Display aspect ratio : 1.673
Frame rate : 25.000 fps
Color space : YUV
Chroma subsampling : 4:2:0
Bit depth : 8 bits
Scan type : Progressive
Compression mode : Lossy
Bits/(Pixel*Frame) : 0.316
Stream size : 1.06 GiB (77%)
Writing library : DivX 6.8.3-6.8.4 (UTC 2008-06-07)
Audio #1
ID : 1
Format : AC-3
Format/Info : Audio Coding 3
Mode extension : CM (complete main)
Format settings, Endianness : Big
Codec ID : 2000
Duration : 1h 14mn
Bit rate mode : Constant
Bit rate : 384 Kbps
Channel(s) : 6 channels
Channel positions : Front: L C R, Side: L R, LFE
Sampling rate : 48.0 KHz
Bit depth : 16 bits
Compression mode : Lossy
Stream size : 205 MiB (15%)
Alignment : Split accross interleaves
Interleave, duration : 40 ms (1.00 video frame)
Interleave, preload duration : 500 ms
Audio #2
ID : 2
Format : AC-3
Format/Info : Audio Coding 3
Mode extension : CM (complete main)
Format settings, Endianness : Big
Codec ID : 2000
Duration : 1h 14mn
Bit rate mode : Constant
Bit rate : 192 Kbps
Channel(s) : 2 channels
Channel positions : Front: L R
Sampling rate : 48.0 KHz
Bit depth : 16 bits
Compression mode : Lossy
Stream size : 103 MiB (7%)
Alignment : Split accross interleaves
Interleave, duration : 40 ms (1.00 video frame)
Interleave, preload duration : 500 ms
-

Скриншоты



- - -
-

Создавать темы 02-Апр-2015 06:36

[Профиль]  [ЛС] 

kat222000 ®

Стаж: 6 лет 6 месяцев

Сообщений: 608

Симпатии: 1055

Любителям хорошего кино, прошу обратить внимание на https://tas-ix.net/viewtopic.php?t=105021

Создавать темы 02-Апр-2015 06:56

[Профиль]  [ЛС] 

cnn

Стаж: 1 год 9 месяцев

Сообщений: 29

Симпатии: 2

есть кто живой из сидеров, 81 человек скачал

Комментарий от kat222000


Автор релиза живее всех живых...)))

Создавать темы 02-Июн-2016 06:04

[Профиль]  [ЛС] 

cnn

Стаж: 1 год 9 месяцев

Сообщений: 29

Симпатии: 2

всем сидерам спасибо

Создавать темы 03-Июн-2016 06:29

[Профиль]  [ЛС] 

IQBOT

Стаж: 6 лет 9 месяцев

Сообщений: 449

Симпатии: 81

спасибо, поржала

Создавать темы 03-Июн-2016 15:37

[Профиль]  [ЛС] 

cnn

Стаж: 1 год 9 месяцев

Сообщений: 29

Симпатии: 2

kat222000, демократию надо внедрять постепенно, что бы не переборщить и палку не перегнуть, но все равно здесь больше демократии чем на любом из треккеров

Создавать темы 04-Июн-2016 16:22

[Профиль]  [ЛС] 

Богдан-net

Стаж: 1 год 5 месяцев

Сообщений: 66

Симпатии: 8

cnn, ты чё там дермократ вылез засрать решил нашу культуру доиграешься сам крыс кормить будешь кое где лучше молчи затухни дермократ или чё

Нарушение от kat222000


3.10. Запрещается оскорблять пользователей трекера в любой форме.

Создавать темы 04-Авг-2016 14:48

[Профиль]  [ЛС] 

Богдан-net

Стаж: 1 год 5 месяцев

Сообщений: 66

Симпатии: 8

kat222000, ты развозишь проблемы у тебя проблемы предвзятое отношение к пользователям злоупотребление положением что является не допустимым для модератора ты провокатор я бы тебе рожу начистил Админ точно прогадал что тебя модератором поставил ты провоцируешь людей

Информация от kat222000


8.2. В случае постоянного нарушения данных Правил, нарушитель будет забанен.
8.3. За соблюдением Правил на трекере следят представители Администрации - Модераторы.
8.4. Пользователи, не согласные с действиями модераторов, могут высказать свое несогласие, отправив ЛС модератору. В случае неразрешимых вопросов, решение принимает администратор. Это решение является окончательным и обсуждению не подлежит.

Создавать темы 08-Авг-2016 19:19

[Профиль]  [ЛС] 
Показать сообщения:    
Тема закрыта

Текущее время: 21-Окт 10:02

Часовой пояс: UTC + 5



Вы не можете начинать темы
Вы не можете отвечать на сообщения
Вы не можете редактировать свои сообщения
Вы не можете удалять свои сообщения
Вы не можете голосовать в опросах
Вы не можете прикреплять файлы к сообщениям
Вы не можете скачивать файлы