Терминатор: Генезис / Terminator: Genisys (Алан Тейлор) [2015, США, фантастика, боевик, триллер, приключения, BDRip 720p | 60 FPS] (Dub) (Sub Rus,Eng + Original Eng)

Ответить на тему
 

ruhal ®

Стаж: 2 года 4 месяца

Сообщений: 1182

Симпатии: 1836

- -Терминатор: Генезис / Terminator: Genisys-
Страна: США
Жанр: фантастика, боевик, триллер, приключения
Год выпуска: 2015
Продолжительность: 02:00:24-Перевод: Профессиональный (дублированный)
Cубтитры: Русские Полные, Английские Полные
Оригинальная аудиодорожка: английский-Режиссер: Алан Тейлор-В ролях: Арнольд Шварценеггер, Джейсон Кларк, Эмилия Кларк, Джай Кортни,
Дж.К. Симмонс, Дайо Окенийи, Мэтт Смит, Кортни Б. Вэнс, Ли Бён Хон, Майкл Глэдис-Описание: Когда Джон Коннор, лидер сопротивления, посылает сержанта Кайла Риза назад в 1984 год,
чтобы защитить Сару Коннор и спасти будущее, неожиданный поворот событий создает разлом во времени.
Сержант Риз оказывается в новой, незнакомой версии прошлого, где он встречает неожиданных союзников,
в том числе Терминатора, новых опасных врагов, и новую миссию: изменить будущее…-Качество видео: BDRip 720p 60fps
Формат видео: MKV
Видео: MPEG4 Video (H264) 1280x536 59.94fps
Аудио: Dolby AC3 48000Hz 6ch 640kbps[Rus]
Аудио 2: Dolby AC3 48000Hz 6ch 640kbps[Eng]
-

MediaInfo

General
Unique ID : 204824433189259639748596539860501156213 (0x9A17C03C6ED67B0DB0D41F32E4185175)
Complete name : E:\Films\HD\Genezis.2015.BDRip.720p.60fps.mkv
Format : Matroska
Format version : Version 2
File size : 4.60 GiB
Duration : 2h 5mn
Overall bit rate : 5 235 Kbps
Movie name : Терминатор: Генезис.(2015).BDRip.720p.[envy].[60fps]
Encoded date : UTC 2015-10-28 05:22:07
Writing application : mkvmerge v5.8.0 ('No Sleep / Pillow') built on Sep 2 2012 15:37:04
Writing library : libebml v1.2.3 + libmatroska v1.3.0
Video
ID : 1
Format : AVC
Format/Info : Advanced Video Codec
Format profile : [email protected]
Format settings, CABAC : Yes
Format settings, ReFrames : 9 frames
Codec ID : V_MPEG4/ISO/AVC
Duration : 2h 5mn
Bit rate : 3 851 Kbps
Width : 1 280 pixels
Height : 536 pixels
Display aspect ratio : 2.40:1
Frame rate mode : Constant
Frame rate : 59.880 fps
Original frame rate : 59.940 fps
Color space : YUV
Chroma subsampling : 4:2:0
Bit depth : 8 bits
Scan type : Progressive
Bits/(Pixel*Frame) : 0.094
Stream size : 3.38 GiB (74%)
Title : Терминатор: Генезис.(2015).BDRip.720p.[envy].[60fps]
Writing library : x264 core 146 r2538 121396c
Encoding settings : cabac=1 / ref=9 / deblock=1:0:0 / analyse=0x3:0x113 / me=umh / subme=10 / psy=1 / psy_rd=1.00:0.00 / mixed_ref=1 / me_range=24 / chroma_me=1 / trellis=2 / 8x8dct=1 / cqm=0 / deadzone=21,11 / fast_pskip=0 / chroma_qp_offset=-2 / threads=12 / lookahead_threads=1 / sliced_threads=0 / nr=0 / decimate=1 / interlaced=0 / bluray_compat=0 / constrained_intra=0 / bframes=5 / b_pyramid=2 / b_adapt=2 / b_bias=0 / direct=3 / weightb=1 / open_gop=0 / weightp=2 / keyint=250 / keyint_min=25 / scenecut=40 / intra_refresh=0 / rc_lookahead=40 / rc=crf / mbtree=0 / crf=18.0 / qcomp=0.60 / qpmin=0 / qpmax=69 / qpstep=4 / vbv_maxrate=14000 / vbv_bufsize=14000 / crf_max=0.0 / nal_hrd=none / filler=0 / ip_ratio=1.40 / pb_ratio=1.30 / aq=3:1.00
Language : English
Default : Yes
Forced : No
Audio #1
ID : 2
Format : AC-3
Format/Info : Audio Coding 3
Mode extension : CM (complete main)
Format settings, Endianness : Big
Codec ID : A_AC3
Duration : 2h 5mn
Bit rate mode : Constant
Bit rate : 640 Kbps
Channel(s) : 6 channels
Channel positions : Front: L C R, Side: L R, LFE
Sampling rate : 48.0 KHz
Bit depth : 16 bits
Compression mode : Lossy
Stream size : 575 MiB (12%)
Title : Dub
Language : Russian
Default : Yes
Forced : No
Audio #2
ID : 3
Format : AC-3
Format/Info : Audio Coding 3
Mode extension : CM (complete main)
Format settings, Endianness : Big
Codec ID : A_AC3
Duration : 2h 5mn
Bit rate mode : Constant
Bit rate : 640 Kbps
Channel(s) : 6 channels
Channel positions : Front: L C R, Side: L R, LFE
Sampling rate : 48.0 KHz
Bit depth : 16 bits
Compression mode : Lossy
Stream size : 575 MiB (12%)
Title : Eng
Language : English
Default : No
Forced : No
Text #1
ID : 4
Format : UTF-8
Codec ID : S_TEXT/UTF8
Codec ID/Info : UTF-8 Plain Text
Title : Rus forced
Language : Russian
Default : Yes
Forced : Yes
Text #2
ID : 5
Format : UTF-8
Codec ID : S_TEXT/UTF8
Codec ID/Info : UTF-8 Plain Text
Title : Rus full
Language : Russian
Default : No
Forced : No
Text #3
ID : 6
Format : UTF-8
Codec ID : S_TEXT/UTF8
Codec ID/Info : UTF-8 Plain Text
Title : Eng full
Language : English
Default : No
Forced : No
Menu
00:00:00.000 : :Chapter 01
00:07:40.334 : :Chapter 02
00:14:20.734 : :Chapter 03
00:20:31.563 : :Chapter 04
00:27:48.416 : :Chapter 05
00:34:54.801 : :Chapter 06
00:41:02.626 : :Chapter 07
00:46:28.786 : :Chapter 08
00:53:05.515 : :Chapter 09
01:01:00.238 : :Chapter 10
01:08:22.555 : :Chapter 11
01:14:43.812 : :Chapter 12
01:21:31.261 : :Chapter 13
01:31:01.706 : :Chapter 14
01:38:42.750 : :Chapter 15
01:45:41.084 : :Chapter 16
01:52:48.970 : :Chapter 17
01:58:00.114 : :Chapter 18
02:05:42.743 : :Chapter 19

Скриншот c названием фильма

Скриншоты






- -

Создавать темы 26-Мар-2016 18:15

[Профиль]  [ЛС] 

killer_said

Стаж: 6 лет 6 месяцев

Сообщений: 183

Симпатии: 54

Ребят, давайте по честному, раз уж вы скачали и больше не хотите раздавать ту раздачу, то удалите из uTorrentа файл а не стопать или ограничить раздачу, чтобы другие смогли нажать на кнопку "Позвать скачавших" и позвать добрых людей а не жмякеров на ограничитель... и спасибо раздающем, пусть ваши Винчестеры будут вам служить долго-долго.

Комментарий от ruhal


качай уважаемый, раздаю! просто надеялся на сознание скачавших(их 30 персон), но видимо придется тянуть раздачу самому

Создавать темы 11-Апр-2016 19:42

[Профиль]  [ЛС] 

john titor

Стаж: 2 года 4 месяца

Сообщений: 42

Симпатии: 5

стоит ли качать?

Комментарий от ruhal


Ну это тебе решать

Создавать темы 22-Май-2016 10:39

[Профиль]  [ЛС] 

john titor

Стаж: 2 года 4 месяца

Сообщений: 42

Симпатии: 5

ощущение как будто присутствуешь на съёмочной площадки, а вот компютерная графика сразу видно, но в остальном стоит посмотреть, фильмы на качестве 60кадров/секунду стоить этого!!!

Создавать темы 22-Май-2016 13:41

[Профиль]  [ЛС] 

UzVersace

Стаж: 5 лет 6 месяцев

Сообщений: 10

Симпатии: 2

Скорость плизб у меня 85%, но скорость 15КБ/с.

Создавать темы 11-Авг-2016 13:29

[Профиль]  [ЛС] 
Показать сообщения:    
Ответить на тему

Текущее время: 22-Авг 23:43

Часовой пояс: UTC + 5



Вы не можете начинать темы
Вы не можете отвечать на сообщения
Вы не можете редактировать свои сообщения
Вы не можете удалять свои сообщения
Вы не можете голосовать в опросах
Вы не можете прикреплять файлы к сообщениям
Вы не можете скачивать файлы