По небу босиком (Султан Хажироко) [2015, Мелодрама, комедия, WEB-DLRip-AVC] [iTunes Russia]

Ответить на тему
 

Admiral ®

Стаж: 3 года 7 месяцев

Сообщений: 312

Симпатии: 347

По небу босиком- Год выпуска: 2015
Страна: Россия, Storm Cinema
Жанр: Мелодрама, комедия
Продолжительность: 01:31:44
Перевод: Не требуется
Cубтитры: нет-Режиссер: Султан Хажироко
В ролях: Алан Кокаев, Милана Карагулова, Султан Хажироко, Арсенуко Масаев, Валентин Камергоев, Роза Байзуллаева, Фатима Мамаева, Юсуп Омаров, Ефрем Амирамов, Сати Казанова, Вадим Мисостов, Олег Гусейнов, Лариса Кярова, Ахмет Хамурзов, Роман Крюков, Людмила Шереметова, Басир Шибзухов-Описание: Говорят, что случайностей в жизни не бывает, что все предопределено… быть может там на небе есть такое министерство… ну, в котором все за нас решают: что и когда с нами должно произойти». С этих слов начинается история, в которой судьба играет с главными героями, превращая близких людей, в совсем незнакомых, даря им любовь и тут же забирая ее назад, сменяет радость грустью, а дружбу предательством. Но какие бы сюрпризы не преподносила жизнь — танцуй, ведь ты так молод, люби, ведь ты так одинок.-Качество видео: WEB-DLRip-AVC
Формат видео: MKV
Видео: MPEG-4 AVC, 1890 Кбит/с, 720x405
Аудио: AC3, 2 ch, 192 Кбит/с [iTunes Russia]
-

Скриншоты



MediaInfo

Общее
Уникальный идентификатор : 244089787015862015243916979868684072521 (0xB7A1FBA572D6CD879829940770653649)
Полное имя : D:ВидеоПо небу босиком.2O15.WEB-DLRip-AVC by Vovan366(ExKinoRay).mkv
Формат : Matroska
Версия формата : Version 4 / Version 2
Размер файла : 1,33 Гбайт
Продолжительность : 1 ч. 31 м.
Общий поток : 2083 Кбит/сек
Название фильма : По небу босиком.2O15.WEB-DLRip-AVC by Vovan366(ExKinoRay)
Дата кодирования : UTC 2016-07-28 14:28:31
Программа кодирования : mkvmerge v9.3.1 ('Mask Machine') 64bit
Библиотека кодирования : libebml v1.3.4 + libmatroska v1.4.5
DURATION : 01:31:44.928000000
NUMBER_OF_FRAMES : 172029
NUMBER_OF_BYTES : 132118272
_STATISTICS_WRITING_APP : mkvmerge v9.3.1 ('Mask Machine') 64bit
_STATISTICS_WRITING_DATE_UTC : 2016-07-28 14:28:31
_STATISTICS_TAGS : BPS DURATION NUMBER_OF_FRAMES NUMBER_OF_BYTES
Видео
Идентификатор : 1
Формат : AVC
Формат/Информация : Advanced Video Codec
Профиль формата : [email protected]
Параметр CABAC формата : Да
Параметр ReFrames формата : 10 кадров
Идентификатор кодека : V_MPEG4/ISO/AVC
Продолжительность : 1 ч. 31 м.
Битрейт : 1890 Кбит/сек
Ширина : 720 пикселей
Высота : 406 пикселей
Соотношение сторон : 16:9
Режим частоты кадров : Постоянный
Частота кадров : 25,000 кадров/сек
Цветовое пространство : YUV
Субдискретизация насыщенности : 4:2:0
Битовая глубина : 8 бит
Тип развёртки : Прогрессивная
Бит/(Пиксели*Кадры) : 0.259
Размер потока : 1,19 Гбайт (89%)
Заголовок : by Vovan366(ExKinoRay)
Библиотека кодирования : x264 core 146 r2538 121396c
Настройки программы : cabac=1 / ref=10 / deblock=1:-3:-3 / analyse=0x3:0x113 / me=umh / subme=11 / psy=1 / psy_rd=1.00:0.05 / mixed_ref=1 / me_range=48 / chroma_me=1 / trellis=2 / 8x8dct=1 / cqm=0 / deadzone=21,11 / fast_pskip=0 / chroma_qp_offset=-3 / threads=6 / lookahead_threads=1 / sliced_threads=0 / nr=0 / decimate=0 / interlaced=0 / bluray_compat=0 / constrained_intra=0 / bframes=10 / b_pyramid=2 / b_adapt=2 / b_bias=0 / direct=3 / weightb=1 / open_gop=0 / weightp=2 / keyint=240 / keyint_min=24 / scenecut=40 / intra_refresh=0 / rc_lookahead=40 / rc=2pass / mbtree=0 / bitrate=1890 / ratetol=1.0 / qcomp=0.60 / qpmin=0 / qpmax=69 / qpstep=4 / cplxblur=20.0 / qblur=0.5 / vbv_maxrate=14000 / vbv_bufsize=14000 / nal_hrd=none / filler=0 / ip_ratio=1.40 / pb_ratio=1.30 / aq=1:1.00
Default : Да
Forced : Нет
Аудио
Идентификатор : 2
Формат : AC-3
Формат/Информация : Audio Coding 3
Расширение режима : CM (complete main)
Параметр Endianness формата : Big
Идентификатор кодека : A_AC3
Продолжительность : 1 ч. 31 м.
Вид битрейта : Постоянный
Битрейт : 192 Кбит/сек
Каналы : 2 канала
Расположение каналов : Front: L R
Частота : 48,0 КГц
Битовая глубина : 16 бит
Метод сжатия : С потерями
Размер потока : 126 Мбайт (9%)
Заголовок : iTunes
Язык : Russian
Default : Да
Forced : Нет


Последний раз редактировалось: Admiral (2016-08-02 06:15), всего редактировалось 1 раз

Создавать темы 02-Авг-2016 01:11

[Профиль]  [ЛС] 

ararat10

Стаж: 3 года 9 месяцев

Сообщений: 9

Фильм просто супер- пересматривал несколько раз!
Спасибо

Создавать темы 15-Авг-2016 07:25

[Профиль]  [ЛС] 
Показать сообщения:    
Ответить на тему

Текущее время: 19-Авг 06:44

Часовой пояс: UTC + 5



Вы не можете начинать темы
Вы не можете отвечать на сообщения
Вы не можете редактировать свои сообщения
Вы не можете удалять свои сообщения
Вы не можете голосовать в опросах
Вы не можете прикреплять файлы к сообщениям
Вы не можете скачивать файлы