[#11]Властелин колец: Братство кольца / The Lord of the Rings: The Fellowship of the Ring (Питер Джексон) [2001 г., Фэнтези, боевик, приключения, BDRip 720p] Расширенное Издание / Extended Edition

Ответить на тему
 

SNation ®

Стаж: 4 года 4 месяца

Сообщений: 81

Симпатии: 70

--«Power can be held in the smallest of things...»-- Год выпуска: 2001
Жанр: Фэнтези, боевик, приключения
Выпущено: США, Новая Зеландия
Продолжительность: 03:48:25
Перевод: Дубляж (со вставками MVO "Позитив-мультимедиа")--Режиссер: Питер Джексон
Сценарий: Фрэнсис Уолш, Филиппа Бойенс, Питер Джексон, ...
Продюсер: Питер Джексон, Барри М. Осборн, Тим Сандерс, ...
Оператор: Эндрю Лесни
Композитор: Говард Шор
Художник: Грант Мейджор, Джо Бликли, Дэн Хенна, ...
Монтаж:     Джон Гилберт--Бюджет: $93 000 000
Маркетинг: $50 000 000
Сборы в США: $315 544 750
Сборы в мире: + $555 985 574 = $871 530 324 сборы
Сборы в России: $7 179 834
Зрители: 54.6 млн, 15.3 млн, 11.8 млн, ...
Премьера (мир): 10 декабря 2001, ...
Премьера (РФ): 7 февраля 2002, «Каро-Премьер»
Релиз на DVD: 3 декабря 2002, «Premier Digital», ...
Релиз на Blu-Ray: 6 апреля 2010, «Юниверсал Пикчерс Рус», ...--В ролях:
Элайджа Вуд, Иэн МакКеллен, Вигго Мортенсен, Шон Бин, Орландо Блум, Джон Рис-Дэвис, Иэн Холм, Шон Эстин, Билли Бойд, Доминик Монахэн
О фильме:
Сказания о Средиземье — это хроника Великой войны за Кольцо, войны, длившейся не одну тысячу лет. Тот, кто владел Кольцом, получал власть над всеми живыми тварями, но был обязан служить злу.
Тихая деревня, где живут хоббиты. Волшебник Гэндальф, придя на 111-й день рождения к своему старому другу Бильбо Бэггинсу, начинает вести разговор о кольце, которое Бильбо нашел много лет назад. Это кольцо принадлежало когда-то темному властителю Средиземья Саурону, и оно дает большую власть своему обладателю. Теперь Саурон хочет вернуть себе власть над Средиземьем. Бильбо отдает найденное кольцо своему племяннику Фродо, который пытается научиться справляться с тем страшным могуществом, которое дает ему кольцо…- - Качество: BDRip 720p
Формат: MKV
Видео кодек: H264
Аудио кодек: AС3
Видео: H264 2353 Kbps 1280x528 23.976 fps
Аудио: AС3 384 Kbps 6 channels 48.0 KHz Russian | DUB
Субтитры: Russian (На эльфийскую речь)

Награды

Оскар, 2002 год
Победитель (4):
Лучшая работа оператора
Лучшие визуальные эффекты
Лучший грим
Лучший оригинальный саундтрек
Премия канала «MTV», 2002 год
Победитель (2):
Лучший фильм
Мужской прорыв года (Орландо Блум)
Британская академия, 2002 год
Победитель (5):
Лучший фильм
Лучшие визуальные эффекты
Лучший грим/прически
Премия имени Дэвида Лина за достижения в режиссуре (Питер Джексон)
Приз зрительских симпатий
Сатурн, 2002 год
Победитель (3):
Лучший фэнтези-фильм
Лучший режиссер (Питер Джексон)
Лучший актер второго плана (Иэн МакКеллен)
Премия Гильдии актеров, 2002 год
Победитель (1):
Лучшая мужская роль второго плана (Иэн МакКеллен)
Сатурн, 2003 год
Победитель (1):
Лучшее специальное DVD-издание —

MediaInfo

General
Unique ID                                : 178190684378067283127806156951521886145 (0x860E47094974EA1CAF1C9CE5C1287FC1)
Complete name                            : D:\Trilogy\Братство кольца.mkv
Format                                   : Matroska
Format version                           : Version 2
File size                                : 4.37 GiB
Duration                                 : 3h 48mn
Overall bit rate mode                    : Variable
Overall bit rate                         : 2 740 Kbps
Movie name                               : Rip by constman [ELEMENT-TEAM.ORG]
Encoded date                             : UTC 2011-08-20 17:25:21
Writing application                      : mkvmerge v4.0.0 ('The Stars were mine') built on Jun  6 2010 16:18:42
Writing library                          : libebml v1.0.0 + libmatroska v1.0.0
Video
ID                                       : 1
Format                                   : AVC
Format/Info                              : Advanced Video Codec
Format profile                           : [email protected]
Format settings, CABAC                   : Yes
Format settings, ReFrames                : 3 frames
Codec ID                                 : V_MPEG4/ISO/AVC
Duration                                 : 3h 48mn
Bit rate mode                            : Variable
Bit rate                                 : 2 353 Kbps
Maximum bit rate                         : 14.0 Mbps
Width                                    : 1 280 pixels
Height                                   : 528 pixels
Display aspect ratio                     : 2.40:1
Frame rate                               : 23.976 fps
Color space                              : YUV
Chroma subsampling                       : 4:2:0
Bit depth                                : 8 bits
Scan type                                : Progressive
Bits/(Pixel*Frame)                       : 0.145
Stream size                              : 3.67 GiB (84%)
Title                                    : h264
Writing library                          : x264 core 115 r1995 c1e60b9
Encoding settings                        : cabac=1 / ref=2 / deblock=1:-1:-1 / analyse=0x3:0x113 / me=hex / subme=6 / psy=1 / psy_rd=1.00:0.15 / mixed_ref=1 / me_range=16 / chroma_me=1 / trellis=1 / 8x8dct=1 / cqm=0 / deadzone=21,11 / fast_pskip=1 / chroma_qp_offset=-3 / threads=3 / sliced_threads=0 / slices=4 / nr=0 / decimate=1 / interlaced=0 / bluray_compat=1 / constrained_intra=0 / bframes=3 / b_pyramid=1 / b_adapt=1 / b_bias=0 / direct=1 / weightb=1 / open_gop=1 / weightp=1 / keyint=24 / keyint_min=2 / scenecut=40 / intra_refresh=0 / rc_lookahead=24 / rc=2pass / mbtree=1 / bitrate=2353 / ratetol=1.0 / qcomp=0.60 / qpmin=0 / qpmax=51 / qpstep=4 / cplxblur=20.0 / qblur=0.5 / vbv_maxrate=14000 / vbv_bufsize=14000 / nal_hrd=vbr / ip_ratio=1.40 / aq=1:1.00
Language                                 : English
Default                                  : No
Forced                                   : No
Audio
ID                                       : 2
Format                                   : AC-3
Format/Info                              : Audio Coding 3
Mode extension                           : CM (complete main)
Format settings, Endianness              : Big
Codec ID                                 : A_AC3
Duration                                 : 3h 48mn
Bit rate mode                            : Constant
Bit rate                                 : 384 Kbps
Channel(s)                               : 6 channels
Channel positions                        : Front: L C R, Side: L R, LFE
Sampling rate                            : 48.0 KHz
Bit depth                                : 16 bits
Compression mode                         : Lossy
Stream size                              : 627 MiB (14%)
Title                                    : Дубляж (со вставками MVO "Позитив-мультимедиа")
Default                                  : No
Forced                                   : No

Скриншоты

Создавать темы 16-Фев-2015 09:58

[Профиль]  [ЛС] 

ussa

Стаж: 7 лет

Сообщений: 28

Симпатии: 3

Когда будит раздача

Создавать темы 14-Авг-2016 10:46

[Профиль]  [ЛС] 

Sawyer

Стаж: 4 года 11 месяцев

Сообщений: 78

Симпатии: 1

Скрины подправьте

Создавать темы 14-Авг-2016 14:12

[Профиль]  [ЛС] 

ussa

Стаж: 7 лет

Сообщений: 28

Симпатии: 3

Пожалуйста дайти скорость помогити Ну пожалуйста
Сколько ждал филем хочу смотреть

Создавать темы 14-Авг-2016 22:13

[Профиль]  [ЛС] 

ussa

Стаж: 7 лет

Сообщений: 28

Симпатии: 3

дайти раздачу пожалуста

Создавать темы 16-Авг-2016 14:43

[Профиль]  [ЛС] 

ussa

Стаж: 7 лет

Сообщений: 28

Симпатии: 3

дайтти скорость пожалуста

Создавать темы 17-Авг-2016 10:06

[Профиль]  [ЛС] 

Neo001

Стаж: 5 лет 2 месяца

Сообщений: 10

Симпатии: 3

Спасибо всем кто на раздаче aa aa aa az az az

Создавать темы 07-Фев-2017 22:28

[Профиль]  [ЛС] 

kebridon

Стаж: 3 года 6 месяцев

Сообщений: 7

Симпатии: 1

а кто раздает?

Создавать темы 11-Фев-2017 07:50

[Профиль]  [ЛС] 
Показать сообщения:    
Ответить на тему

Текущее время: 23-Авг 05:20

Часовой пояс: UTC + 5



Вы не можете начинать темы
Вы не можете отвечать на сообщения
Вы не можете редактировать свои сообщения
Вы не можете удалять свои сообщения
Вы не можете голосовать в опросах
Вы не можете прикреплять файлы к сообщениям
Вы не можете скачивать файлы