Полицейская история - Коллекция / Ging chat goo si - Collection [1985 - 2013 г., боевик, триллер, комедия, криминал, BDRip-AVC, BDRip] (MVO), (АVO)

Ответить на тему
 

kat222000 ®

Стаж: 6 лет 7 месяцев

Сообщений: 608

Симпатии: 1055

Полицейская история - Коллекция (1985-2013)/ Ging chat goo si - Collection (1985-2013)

〤 Полицейская история / Ging chat goo si 〤

Полицейская история / Ging chat goo si«Один против мафии. Что он может? Всё - если за дело берется суперполицейский» -Страна: Гонконг
Жанр: боевик, триллер, комедия, криминал
Год выпуска: 1985
Продолжительность: 01:40:06
Перевод: Профессиональный (многоголосый, закадровый) Рен-ТВ
Субтитры: нет
Навигация по главам: нет-Режиссер: Джеки Чан / Jackie Chan-В ролях: Джеки Чан, Бриджит Лин, Мэгги Чун, Квок-Хун Лам, Билл Тун, Юэнь Чор, Чарли Чо, Чи-Вин Лау, Хак-Он Фанг, Хин Йинг Кэм...-Описание: В результате удачно проведенной облавы в руки полиции попадает босс наркомафии Чи. Одному из полицейских, Кевину, принимавшему непосредственное участие в аресте, поручают охрану секретарши преступника, которая проходит по делу в качестве главного свидетеля. Но в день суда она исчезает. Только разыскав девушку и арестовав Чи, Кевин сможет снять с себя подозрение в соучастии…- -Качество видео: BDRip-AVC
Формат видео: MKV
Видео кодек: AVC
Аудио кодек: AC3
Видео: 1280x544 (2.35:1), 23.976 fps, AVC ~2 941 kbps, 0,176 bit/pixel
Аудио: 48 kHz, AC3 Dolby Digital, 2/0 (L,R), ~256.00 kbps avg (Русский | MVO)-

〤 ОтчетМедиаИнфо 〤

General
Unique ID : 218009451073540145023060968099172065342 (0xA40317CEBAD04105BF2212A76C64203E)
Format : Matroska
Format version : Version 2
File size : 2.24 GiB
Duration : 1h 40mn
Overall bit rate mode : Variable
Overall bit rate : 3 204 Kbps
Encoded date : UTC 2010-12-18 03:25:46
Writing application : mkvmerge v3.2.0 ('Beginnings') built on Feb 12 2010 16:46:17
Writing library : libebml v0.7.9 + libmatroska v0.8.1
Video
ID : 1
Format : AVC
Format/Info : Advanced Video Codec
Format profile : [email protected]
Format settings, CABAC : Yes
Format settings, ReFrames : 3 frames
Codec ID : V_MPEG4/ISO/AVC
Duration : 1h 40mn
Bit rate mode : Variable
Bit rate : 2 941 Kbps
Maximum bit rate : 17.5 Mbps
Width : 1 280 pixels
Height : 544 pixels
Display aspect ratio : 2.35:1
Original display aspect rat : 2.35:1
Frame rate mode : Constant
Frame rate : 23.976 fps
Color space : YUV
Chroma subsampling : 4:2:0
Bit depth : 8 bits
Scan type : Progressive
Bits/(Pixel*Frame) : 0.176
Stream size : 2.02 GiB (90%)
Title : Полицейская история
Writing library : x264 core 108 r1788 c764e29
Encoding settings : cabac=1 / ref=1 / deblock=1:0:0 / analyse=0x3:0x3 / me=dia / subme=1 / psy=1 / psy_rd=0.00:0.00 / mixed_ref=0 / me_range=16 / chroma_me=1 / trellis=0 / 8x8dct=1 / cqm=0 / deadzone=21,11 / fast_pskip=1 / chroma_qp_offset=0 / threads=3 / sliced_threads=0 / slices=4 / nr=0 / decimate=1 / interlaced=0 / constrained_intra=0 / bframes=3 / b_pyramid=1 / b_adapt=1 / b_bias=0 / direct=1 / weightb=1 / open_gop=0 / weightp=0 / keyint=24 / keyint_min=1 / scenecut=40 / intra_refresh=0 / rc_lookahead=0 / rc=abr / mbtree=0 / bitrate=2941 / ratetol=1.0 / qcomp=0.60 / qpmin=0 / qpmax=51 / qpstep=4 / vbv_maxrate=17500 / vbv_bufsize=14500 / ip_ratio=1.10 / pb_ratio=1.10 / aq=1:1.00 / nal_hrd=vbr
Language : English
Default : Yes
Forced : No
Audio
ID : 2
Format : AC-3
Format/Info : Audio Coding 3
Mode extension : CM (complete main)
Format settings, Endianness : Big
Codec ID : A_AC3
Duration : 1h 40mn
Bit rate mode : Constant
Bit rate : 256 Kbps
Channel(s) : 2 channels
Channel positions : Front: L R
Sampling rate : 48.0 KHz
Compression mode : Lossy
Stream size : 183 MiB (8%)
Title : Многоголосый Рен-ТВ
Language : Russian
Default : Yes
Forced : No
-

〤 Скриншоты 〤



-© Оформление by kat222000
-

〤 Полицейская история 2 / Ging chat goo si 2 〤

Полицейская история 2/ Ging chat goo si 2 -Страна: Гонконг
Жанр: боевик, триллер, комедия, криминал
Год выпуска: 1988
Продолжительность: 02:01:25
Перевод: Авторский (одноголосый, закадровый)
Субтитры: нет
Навигация по главам: нет-Режиссер: Джеки Чан / Jackie Chan-В ролях: Джеки Чан / Jackie Chan, Мэгги Чун / Maggie Cheung, Квок-Хун Лам / Kwok-Hung Lam, Билл Тун / Bill Tung, Бенни Лай / Benny Lai, Джон Чунг / John Cheung, Чарли Чо / Charlie Cho, Юен Чор / Yuen Chor, Бен Лам / Ben Lam, Чи Фай Чан / Chi Fai Chan, Сан Кван / Shan Kwan, Марс / Mars...-Описание: На свободу выходит босс наркомафии Ку, но наркоторговля не остановлена, и первая его мысль после заключения — отомстить полицейскому Кевину Ченгу, упрятавшему его за решетку. Ку нанимает киллера, который, впрочем, явно не в себе…
Тем временем группа изощренных террористов пугает население серией взрывов в людных местах и вымогает 10 миллионов долларов у одной торговой фирмы. Справиться с этой ситуацией и спасти любимую девушку под силу только полицейскому Кевину Ченгу.- -Качество видео: BDRip
Формат видео: AVI
Видео кодек: XviD
Аудио кодек: AC3
Видео: 720x304 (2.35:1), 23.976 fps, XviD build 50 ~1 914 kbps avg, 0.365 bit/pixel
Аудио 1: 48 kHz, AC3 Dolby Digital, 2/0 (L,R), ~192.00 kbps avg (Русский | АVO)
Аудио 2: 48 kHz, AC3 Dolby Digital, 3/2 (L,C,R,l,r) + LFE ch, ~448.00 kbps avg (Chinese | Original)-

〤 ОтчетМедиаИнфо 〤

General
Format : AVI
Format/Info : Audio Video Interleave
Format profile : OpenDML
File size : 2.18 GiB
Duration : 2h 1mn
Overall bit rate : 2 572 Kbps
Movie name : Полицейская история 2 / Police Story 2 / Ging chaat goo si juk jaap (1988) BDRip
Director : Gellard
Writing application : VirtualDubModRus 1.5.10.2 (build 2542/release)
Copyright : http://hqclub.net/
Comment : 29.12.2010
Video
ID : 0
Format : MPEG-4 Visual
Format profile : Advanced [email protected]
Format settings, BVOP : 1
Format settings, QPel : No
Format settings, GMC : No warppoints
Format settings, Matrix : Custom
Codec ID : XVID
Codec ID/Hint : XviD
Duration : 2h 1mn
Bit rate : 1 914 Kbps
Width : 720 pixels
Height : 304 pixels
Display aspect ratio : 2.35:1
Frame rate : 23.976 fps
Color space : YUV
Chroma subsampling : 4:2:0
Bit depth : 8 bits
Scan type : Progressive
Compression mode : Lossy
Bits/(Pixel*Frame) : 0.365
Stream size : 1.62 GiB (74%)
Writing library : XviD 1.2.1 (UTC 2008-12-04)
Audio #1
ID : 1
Format : AC-3
Format/Info : Audio Coding 3
Mode extension : CM (complete main)
Format settings, Endianness : Big
Codec ID : 2000
Duration : 2h 1mn
Bit rate mode : Constant
Bit rate : 192 Kbps
Channel(s) : 2 channels
Channel positions : Front: L R
Sampling rate : 48.0 KHz
Compression mode : Lossy
Stream size : 167 MiB (7%)
Alignment : Split accross interleaves
Interleave, duration : 42 ms (1.00 video frame)
Interleave, preload duration : 500 ms
Audio #2
ID : 2
Format : AC-3
Format/Info : Audio Coding 3
Mode extension : CM (complete main)
Format settings, Endianness : Big
Codec ID : 2000
Duration : 2h 1mn
Bit rate mode : Constant
Bit rate : 448 Kbps
Channel(s) : 6 channels
Channel positions : Front: L C R, Side: L R, LFE
Sampling rate : 48.0 KHz
Compression mode : Lossy
Stream size : 389 MiB (17%)
Alignment : Split accross interleaves
Interleave, duration : 42 ms (1.00 video frame)
Interleave, preload duration : 500 ms
-

〤 Скриншоты 〤



-© Оформление by kat222000
-

〤 Полицейская история 3: Суперполицейский / Ging chat goo si 3: Chiu kup ging chat 〤

Полицейская история 3: Суперполицейский/ Ging chat goo si 3: Chiu kup ging chat«Meet the cop that can't be stopped!» -Страна: Гонконг
Жанр: боевик, триллер, комедия, криминал
Год выпуска: 1992
Продолжительность: 01:31:04
Перевод: Профессиональный (многоголосый, закадровый) ВГТРК по заказу Россия 1
Субтитры: нет
Навигация по главам: нет-Режиссер: Стэнли Тонг / Stanley Tong-В ролях: Джеки Чан, Бриджит Лин, Мэгги Чун, Квок-Хун Лам, Билл Тун, Юэнь Чор, Чарли Чо, Чи-Вин Лау, Хак-Он Фанг, Хин Йинг Кэм...-Описание: Полиция Гонконга и Китая совместно с Интерполом готовит масштабную операцию по ликвидации интернациональной банды наркоторговцев. Замысел операции сводится к тому, чтобы вытащить из китайской тюрьмы одного из главарей нарко-спрута и через него выйти на верхушку организованной пирамиды.
Кто же сможет осуществить такой дерзкий и рискованный план, если не Суперполицейский. Кевин Ченг, знакомый нам по первым сериям фильма, за какие-то прегрешения, ныне пребывающий в должности постового, вызван для осуществления необычной операции Интерпола. Для поддержки ему назначают директора китайского Интерпола — очаровательную капитаншу Енг.- -Качество видео: BDRip-AVC
Формат видео: MKV
Видео кодек: AVC
Аудио кодек: AC3
Видео: 1024x576 (1.78:1), 23.976 fps, AVC ~2 820 kbps, 0,199 bit/pixel
Аудио 1: 48 kHz, AC3 Dolby Digital, 2/0 (L,R), ~192.00 kbps avg (Русский | MVO)
Аудио 2: 48 kHz, AC3 Dolby Digital, 2/0 (L,R), ~192.00 kbps avg (English | Original)-

〤 ОтчетМедиаИнфо 〤

General
Unique ID : 233786308427336744849475039527040366571 (0xAFE19AEE4EEB76F6A555045F4326B7EB)
Format : Matroska
Format version : Version 2
File size : 2.04 GiB
Duration : 1h 31mn
Overall bit rate : 3 205 Kbps
Encoded date : UTC 2013-02-27 17:48:34
Writing application : mkvmerge v4.0.0 ('The Stars were mine') сборка от Jun 6 2010 16:18:42
Writing library : libebml v1.0.0 + libmatroska v1.0.0
Video
ID : 1
Format : AVC
Format/Info : Advanced Video Codec
Format profile : [email protected]
Format settings, CABAC : Yes
Format settings, ReFrames : 5 frames
Codec ID : V_MPEG4/ISO/AVC
Duration : 1h 31mn
Bit rate : 2 820 Kbps
Width : 1 024 pixels
Height : 576 pixels
Display aspect ratio : 16:9
Frame rate mode : Constant
Frame rate : 23.976 fps
Color space : YUV
Chroma subsampling : 4:2:0
Bit depth : 8 bits
Scan type : Progressive
Bits/(Pixel*Frame) : 0.199
Stream size : 1.75 GiB (86%)
Writing library : x264 core 65
Encoding settings : cabac=1 / ref=5 / deblock=1:-2:-2 / analyse=0x1:0x111 / me=umh / subme=8 / psy_rd=1.0:0.0 / mixed_ref=0 / me_range=25 / chroma_me=1 / trellis=2 / 8x8dct=0 / cqm=0 / deadzone=21,11 / chroma_qp_offset=-2 / threads=6 / nr=0 / decimate=1 / mbaff=0 / bframes=2 / b_pyramid=0 / b_adapt=1 / b_bias=0 / direct=1 / wpredb=0 / keyint=240 / keyint_min=24 / scenecut=40(pre) / rc=2pass / bitrate=2820 / ratetol=1.0 / qcomp=0.60 / qpmin=10 / qpmax=51 / qpstep=4 / cplxblur=20.0 / qblur=0.5 / ip_ratio=1.40 / pb_ratio=1.30 / aq=1:1.00
Language : English
Default : No
Forced : No
Color range : Limited
Color primaries : BT.709
Transfer characteristics : BT.709
Matrix coefficients : BT.709
Audio #1
ID : 2
Format : AC-3
Format/Info : Audio Coding 3
Mode extension : CM (complete main)
Format settings, Endianness : Big
Codec ID : A_AC3
Duration : 1h 31mn
Bit rate mode : Constant
Bit rate : 192 Kbps
Channel(s) : 2 channels
Channel positions : Front: L R
Sampling rate : 48.0 KHz
Compression mode : Lossy
Stream size : 125 MiB (6%)
Title : Профессиональный, многоголосый (ВГТРК по заказу Россия 1)
Language : Russian
Default : No
Forced : No
Audio #2
ID : 3
Format : AC-3
Format/Info : Audio Coding 3
Mode extension : CM (complete main)
Format settings, Endianness : Big
Codec ID : A_AC3
Duration : 1h 31mn
Bit rate mode : Constant
Bit rate : 192 Kbps
Channel(s) : 2 channels
Channel positions : Front: L R
Sampling rate : 48.0 KHz
Compression mode : Lossy
Stream size : 125 MiB (6%)
Title : Английский (оригинал)
Language : English
Default : No
Forced : No
-

〤 Скриншоты 〤



-© Оформление by kat222000
-

〤 Полицейская история 2013 / Ging chat goo si 2013 〤

Полицейская история 2013 / Ging chat goo si 2013 -Страна: Гонконг, Китай
Жанр: боевик, триллер, комедия, криминал
Год выпуска: 2013
Продолжительность: 01:50:07
Перевод: Авторский (одноголосый закадровый) С.Визгунов
Субтитры: нет
Навигация по главам: есть-Режиссер: Дин Шэн / Ding Sheng-В ролях: Джеки Чан, Лю Е, Тянь Цзин, Вэй На, Юй Жун Гуан, Александр Байли, Макс Хуан, Лью Пэйци, Ивэй Лау, Джеймс Лоджа-Описание: История начинается с того, что посетители паба оказываются взятыми в заложники. Среди посетителей есть офицер полиции Вэнь Чжун и его непослушная дочь Мяомяо. Человек, удерживающий всех в заложниках — владелец паба, который таким образом пытается добиться освобождения из тюрьмы одного преступника…- -Качество видео: BDRip-AVC
Формат видео: MKV
Видео кодек: AVC
Аудио кодек: AC3
Видео: 960x408 (2,35:1), 24,000 fps, AVC ~1937 Кbps, 0.206 bit/pixel
Аудио 1: 48 kHz, AC3 Dolby Digital, 3/2 (L,C,R,l,r) + LFE ch, ~448.00 kbps avg (Русский | MVO)
Аудио 2: 48 kHz, AC3 Dolby Digital, 3/2 (L,C,R,l,r) + LFE ch, ~448.00 kbps avg (Chinese | Original)-

〤 ОтчетМедиаИнфо 〤

General
Unique ID : 231547593798119540751618641752233408118 (0xAE3271C72014275190868B8C4BF4F676)
Format : Matroska
Format version : Version 4 / Version 2
File size : 2.18 GiB
Duration : 1h 50mn
Overall bit rate : 2 835 Kbps
Encoded date : UTC 2014-06-02 15:57:25
Writing application : mkvmerge v5.9.0 ('On The Loose') built on Dec 15 2012 16:39:58
Writing library : libebml v1.3.0 + libmatroska v1.4.0
Video
ID : 1
Format : AVC
Format/Info : Advanced Video Codec
Format profile : [email protected]
Format settings, CABAC : Yes
Format settings, ReFrames : 12 frames
Codec ID : V_MPEG4/ISO/AVC
Duration : 1h 50mn
Bit rate : 1 937 Kbps
Width : 960 pixels
Height : 408 pixels
Display aspect ratio : 2.35:1
Frame rate mode : Constant
Frame rate : 24.000 fps
Color space : YUV
Chroma subsampling : 4:2:0
Bit depth : 8 bits
Scan type : Progressive
Bits/(Pixel*Frame) : 0.206
Stream size : 1.45 GiB (66%)
Title : Jing cha gu shi 2013
Writing library : x264 core 130 r2273 b3065e6
Encoding settings : cabac=1 / ref=12 / deblock=1:-2:-2 / analyse=0x3:0x133 / me=umh / subme=11 / psy=1 / psy_rd=1.01:0.03 / mixed_ref=1 / me_range=32 / chroma_me=1 / trellis=2 / 8x8dct=1 / cqm=0 / deadzone=21,11 / fast_pskip=0 / chroma_qp_offset=-3 / threads=9 / lookahead_threads=6 / sliced_threads=0 / nr=0 / decimate=0 / interlaced=0 / bluray_compat=0 / constrained_intra=0 / bframes=13 / b_pyramid=2 / b_adapt=2 / b_bias=0 / direct=3 / weightb=1 / open_gop=0 / weightp=2 / keyint=250 / keyint_min=23 / scenecut=40 / intra_refresh=0 / rc_lookahead=60 / rc=2pass / mbtree=0 / bitrate=1937 / ratetol=1.0 / qcomp=0.70 / qpmin=0 / qpmax=69 / qpstep=4 / cplxblur=20.0 / qblur=0.5 / vbv_maxrate=20000 / vbv_bufsize=20000 / nal_hrd=none / ip_ratio=1.35 / pb_ratio=1.25 / aq=1:0.80
Language : Chinese
Default : Yes
Forced : No
Audio #1
ID : 2
Format : AC-3
Format/Info : Audio Coding 3
Mode extension : CM (complete main)
Format settings, Endianness : Big
Codec ID : A_AC3
Duration : 1h 50mn
Bit rate mode : Constant
Bit rate : 448 Kbps
Channel(s) : 6 channels
Channel positions : Front: L C R, Side: L R, LFE
Sampling rate : 48.0 KHz
Compression mode : Lossy
Stream size : 353 MiB (16%)
Title : AVO | DD 5.1 @ 448 kbps - С.Визгунов
Language : Russian
Default : Yes
Forced : No
Audio #2
ID : 3
Format : AC-3
Format/Info : Audio Coding 3
Mode extension : CM (complete main)
Format settings, Endianness : Big
Codec ID : A_AC3
Duration : 1h 50mn
Bit rate mode : Constant
Bit rate : 448 Kbps
Channel(s) : 6 channels
Channel positions : Front: L C R, Side: L R, LFE
Sampling rate : 48.0 KHz
Compression mode : Lossy
Stream size : 353 MiB (16%)
Title : Original | DD 5.1 @ 448 kbps
Language : Chinese
Default : No
Forced : No
Text
ID : 4
Format : UTF-8
Codec ID : S_TEXT/UTF8
Codec ID/Info : UTF-8 Plain Text
Language : English
Default : No
Forced : No
Menu
00:09:49.000 : en:(01)00:09:49:000
00:19:52.000 : en:(02)00:19:52:000
00:28:14.625 : en:(03)00:28:14:625
00:37:56.000 : en:(04)00:37:56:000
00:47:41.000 : en:(05)00:47:41:000
00:56:41.000 : en:(06)00:56:41:000
01:05:11.000 : en:(07)01:05:11:000
01:15:06.000 : en:(08)01:15:06:000
01:25:26.000 : en:(09)01:25:26:000
01:34:59.000 : en:(10)01:34:59:000
01:43:00.000 : en:(11)01:43:00:000
01:50:07.000 : en:(12)01:50:07:000
-

〤 Скриншоты 〤



© Оформление by kat222000
© Оформление by kat222000



Последний раз редактировалось: kat222000 (2016-03-16 19:37), всего редактировалось 1 раз

Создавать темы 13-Мар-2016 22:11

[Профиль]  [ЛС] 

realcom91

Стаж: 6 лет 7 месяцев

Сообщений: 5

Симпатии: 3

Огромное Спасибо друг!

_________________
Подпись отключена за нарушение правил форума

Создавать темы 14-Мар-2016 18:12

[Профиль]  [ЛС] 

Leema

Стаж: 2 года

Сообщений: 7

Ребят дайте скорости!

Создавать темы 17-Авг-2016 10:16

[Профиль]  [ЛС] 
Показать сообщения:    
Ответить на тему

Текущее время: 24-Ноя 21:52

Часовой пояс: UTC + 5



Вы не можете начинать темы
Вы не можете отвечать на сообщения
Вы не можете редактировать свои сообщения
Вы не можете удалять свои сообщения
Вы не можете голосовать в опросах
Вы не можете прикреплять файлы к сообщениям
Вы не можете скачивать файлы