Бэтмен против Супермена: На заре справедливости / Batman v Superman: Dawn of Justice (Зак Снайдер) [2016, США, фантастика, фэнтези, боевик, приключения, WEB-DLRip] [iTunes]

Ответить на тему
 

ruhal ®

Стаж: 2 года 8 месяцев

Сообщений: 1181

Симпатии: 1836

- -Бэтмен против Супермена: На заре справедливости / Batman v Superman: Dawn of Justice- - Страна: США
Жанр: фантастика, фэнтези, боевик, приключения
Год выпуска: 2016
Продолжительность: 02:31:25-Перевод: Профессиональный (дублированный) [iTunes]
Cубтитры: нет-Режиссер: Зак Снайдер-В ролях: Генри Кавилл, Бен Аффлек, Галь Гадот, Джейсон Момоа, Эми Адамс, Джесси Айзенберг, Джена Мэлоун, Эзра Миллер, Дайан Лэйн, Джереми-Описание: Опасаясь, что действия богоподобного супергероя так и останутся бесконтрольными, грозный и могущественный страж Готэм Сити бросает вызов самому почитаемому в наши дни спасителю Метрополиса, в то время как весь остальной мир решает, какой герой ему по-настоящему нужен. И пока Бэтмен и Супермен пребывают в состоянии войны друг с другом, возникает новая угроза, которая ставит человечество под самую большую опасность, с которой оно когда-либо сталкивалось.-Качество видео: WEB-DLRip
Формат видео: AVI
Видео: Xvid 720x304 23.976fps 1541kbps
Аудио: Dolby AC3 48000Hz 6ch 384kbps-

MediaInfo

General
Format : AVI
Format/Info : Audio Video Interleave
Format profile : OpenDML
File size : 2.05 GiB
Duration : 2h 31mn
Overall bit rate : 1 938 Kbps
Writing application : VirtualDubMod 1.5.10.2 (build 2540/release)
Writing library : VirtualDubMod build 2540/release
Video
ID : 0
Format : MPEG-4 Visual
Format profile : Advanced [email protected]
Format settings, BVOP : 2
Format settings, QPel : No
Format settings, GMC : No warppoints
Format settings, Matrix : Default (MPEG)
Codec ID : XVID
Codec ID/Hint : XviD
Duration : 2h 31mn
Bit rate : 1 542 Kbps
Width : 720 pixels
Height : 304 pixels
Display aspect ratio : 2.35:1
Frame rate : 23.976 fps
Color space : YUV
Chroma subsampling : 4:2:0
Bit depth : 8 bits
Scan type : Progressive
Compression mode : Lossy
Bits/(Pixel*Frame) : 0.294
Stream size : 1.63 GiB (80%)
Writing library : XviD 1.2.1 (UTC 2008-12-04)
Audio
ID : 1
Format : AC-3
Format/Info : Audio Coding 3
Mode extension : CM (complete main)
Format settings, Endianness : Big
Codec ID : 2000
Duration : 2h 31mn
Bit rate mode : Constant
Bit rate : 384 Kbps
Channel(s) : 6 channels
Channel positions : Front: L C R, Side: L R, LFE
Sampling rate : 48.0 KHz
Bit depth : 16 bits
Compression mode : Lossy
Stream size : 416 MiB (20%)
Alignment : Split accross interleaves
Interleave, duration : 42 ms (1.00 video frame)
Interleave, preload duration : 500 ms

Скриншоты




Создавать темы 29-Июн-2016 21:54

[Профиль]  [ЛС] 

kysoft

Стаж: 5 лет 1 месяц

Сообщений: 10

Симпатии: 5

столько ждал этот фильм.
зря ждал.

Создавать темы 04-Июл-2016 19:28

[Профиль]  [ЛС] 

mr.green

Стаж: 4 года 2 месяца

Сообщений: 25

Симпатии: 6

977393столько ждал этот фильм.
зря ждал.
Согласен

Создавать темы 06-Июл-2016 11:31

[Профиль]  [ЛС] 

Frize

Стаж: 6 лет 6 месяцев

Сообщений: 8

Симпатии: 1

Это режиссерская или театральная?

Комментарий от ruhal


театральная

Создавать темы 22-Июл-2016 00:51

[Профиль]  [ЛС] 

RedAlert

Стаж: 7 лет 4 месяца

Сообщений: 9

Симпатии: 4

Неужели не интересно их битва?

Создавать темы 01-Авг-2016 22:53

[Профиль]  [ЛС] 

virus902901

Стаж: 5 лет 10 месяцев

Сообщений: 28

Симпатии: 16

Где скорость ребята дайте скачать

Создавать темы 17-Авг-2016 22:13

[Профиль]  [ЛС] 

zaka95

Стаж: 5 лет 10 месяцев

Сообщений: 8

Симпатии: 1

где скачать режиссерскую версию?

Создавать темы 09-Фев-2017 02:10

[Профиль]  [ЛС] 
Показать сообщения:    
Ответить на тему

Текущее время: 16-Дек 21:34

Часовой пояс: UTC + 5



Вы не можете начинать темы
Вы не можете отвечать на сообщения
Вы не можете редактировать свои сообщения
Вы не можете удалять свои сообщения
Вы не можете голосовать в опросах
Вы не можете прикреплять файлы к сообщениям
Вы не можете скачивать файлы