Скачать торрент Суперсерия 1975/76: Нью-Йорк Рейнджерс - ЦСКА [1975г, Хоккей, WEB-DLRip]

Ответить на тему
 

beshka666 ®

Стаж: 2 года 10 месяцев

Сообщений: 35

Симпатии: 24

Суперсерия 1975/76: Нью-Йорк Рейнджерс - ЦСКА
Вид спорта: Хоккей
Дата матча: 28.12.1975
Место проведения матча: США (г. Нью-Йорк). Арена "Madison Square Garden".
Продолжительность: 01:40:56
Комментаторы: А. Ефимов и В. Третьяк
Составы комманд:
“Нью-Йорк Рейнджерс”: Дэвидсон; Ваднэ - Беднарски, Грешнер - Джарретт, Беверли - Сахарук, Жильбер - Ф. Эспозито - Викерс, Миддлтон - Стемковски - Ткачук, Фэйр- берн - Холлэнд - Джонстоун, Диллон, Полис.
ЦСКА: Третьяк; Васильев - Гусев, Лутченко - Цыганков, Кузькин - Волченков, Михай- лов - Петров - Харламов, Викулов - Жлуктов - Александров, Попов - Солодухин - Мальцев, Глазов, Волчков, Кутергин.
Описание: В декабре 1975 - январе 1976 годов, московские хоккейные команды ЦСКА и «Крылья Советов» провели в США и Канаде по четыре встречи с сильнейшими профессиональными клубами Национальной хоккейной лиги (НХЛ), вошедшие в историю под названием «Суперсерия-76».
На высшем хоккейном уровне уже прошли две серии встреч - в 1972 и 1974 годах. Третья получила особое название. Дело в том, что ей за океаном придавали особое значение. Руководители НХЛ считали, что игры в 1972 и 1974 годах между сборными СССР и Канады были непоказательными. Дескать, в Канаде и США могучие клубы, поэтому настоящее выяснение мощи соперников произойдет в матчах клубных команд. И вот Советские команды в конце декабря 1975 года отправились за океан.
И это первая игра ЦСКА с профессионалами НХЛ
К сожалению качество изображения не ахти, но шайба видна
Качество: WEB-DLRip
Формат: AVI
Видео кодек: MPEG-4
Аудио кодек: MP3
Видео: XviD build 50; 640x480 (4:3); 25 fps; 1935 Kbps; 0,25 bit/pixel
Аудио: MPEG Layer 3 (MP3); 2 ch stereo; 48 KHz; 128 Kbps CBR

MI

General
Format : AVI
Format/Info : Audio Video Interleave
File size : 1.46 GiB
Duration : 1h 40mn
Overall bit rate : 2 073 Kbps
Writing library : VirtualDub build 30091/release
Video
ID : 0
Format : MPEG-4 Visual
Format profile : Advanced [email protected]
Format settings, BVOP : Yes
Format settings, QPel : No
Format settings, GMC : No warppoints
Format settings, Matrix : Custom
Codec ID : XVID
Codec ID/Hint : XviD
Duration : 1h 40mn
Bit rate : 1 935 Kbps
Width : 640 pixels
Height : 480 pixels
Display aspect ratio : 4:3
Frame rate : 25.000 fps
Color space : YUV
Chroma subsampling : 4:2:0
Bit depth : 8 bits
Scan type : Progressive
Compression mode : Lossy
Bits/(Pixel*Frame) : 0.252
Stream size : 1.36 GiB (93%)
Writing library : XviD 1.2.1 (UTC 2008-12-04)
Audio
ID : 1
Format : MPEG Audio
Format version : Version 1
Format profile : Layer 3
Mode : Joint stereo
Mode extension : MS Stereo
Codec ID : 55
Codec ID/Hint : MP3
Duration : 1h 40mn
Bit rate mode : Constant
Bit rate : 128 Kbps
Channel count : 2 channels
Sampling rate : 48.0 KHz
Compression mode : Lossy
Stream size : 92.4 MiB (6%)
Alignment : Split accross interleaves
Interleave, duration : 40 ms (1.00 video frame)
Interleave, preload duration : 500 ms

Скриншоты



Создавать темы 19-Авг-2016 23:43

[Профиль]  [ЛС] 
Показать сообщения:    
Ответить на тему

Текущее время: 16-Июл 13:43

Часовой пояс: UTC + 5



Вы не можете начинать темы
Вы не можете отвечать на сообщения
Вы не можете редактировать свои сообщения
Вы не можете удалять свои сообщения
Вы не можете голосовать в опросах
Вы не можете прикреплять файлы к сообщениям
Вы не можете скачивать файлы