Варкрафт | Warcraft (Дункан Джонс) [2016, фэнтези, боевик, приключения, WEB-DLRip] iTunes

Ответить на тему
 

bbk ®

Стаж: 7 лет 1 месяц

Сообщений: 435

Симпатии: 479

Варкрафт / Warcraft (2016) WEB-DLRip- Производство: США, Blizzard Entertainment, Legendary Pictures, Universal Pictures
Жанр: Фэнтези, Боевик, Приключения
Режиссер: Дункан Джонс
Продюсер: Стюарт Фенеган, Алекс Гартнер, Джон Дж. Джашни
Актеры: Трэвис Фиммел, Бен Фостер, Пола Пэттон, Тоби Кеббелл, Роберт Казински, Доминик Купер, Даниэль Ву, Клэнси Браун
Описание: Веками магия и неприступные стены защищали людей от любых напастей. Но древнее зло, побежденное и забытое тысячелетия назад, пробудилось. В самом сердце королевства открылся темный портал, и раса невиданных существ наводнила земли Азерота. Так начались события, призванные навсегда изменить судьбу этого мира.
Возраст: 12+ (зрителям, достигшим 12 лет)
Рейтинг MPAA: PG-13 (детям до 13 лет просмотр нежелателен)
Дата мировой премьеры: 25 мая 2016
Дата российской премьеры: 26 мая 2016, «UPI» 3D
Продолжительность: 02:03:06
Качество видео: WEB-DLRip
Перевод: Дублированный (iTunes)
Видео: XviD, 720x288, 1997 Kbps
Аудио: AC-3, 48.0 KHz, 6 ch, 384 Kbps

MediaInfo

Общее
Полное имя                               : Warkraft.2016.D.WEB-DLRip.2100MB.avi
Формат                                   : AVI
Формат/Информация                        : Audio Video Interleave
Профиль формата                          : OpenDML
Размер файла                             : 2,05 Гбайт
Продолжительность                        : 2 ч. 3 м.
Общий поток                              : 2388 Кбит/сек
Программа кодирования                    : VirtualDubMod 1.5.10.2 (build 2540/release)
Библиотека кодирования                   : VirtualDubMod build 2540/release
Видео
Идентификатор                            : 0
Формат                                   : MPEG-4 Visual
Профиль формата                          : Advanced [email protected]
Параметр BVOP формата                    : 2
Параметр QPel формата                    : Нет
Параметр GMC формата                     : Без точки перехода
Параметр матрицы формата                 : Default (MPEG)
Идентификатор кодека                     : XVID
Идентификатор кодека/Подсказка           : XviD
Продолжительность                        : 2 ч. 3 м.
Битрейт                                  : 1997 Кбит/сек
Ширина                                   : 720 пикселей
Высота                                   : 288 пикселей
Соотношение сторон                       : 2,500
Частота кадров                           : 23,976 кадра/сек
Цветовое пространство                    : YUV
Субдискретизация насыщенности            : 4:2:0
Битовая глубина                          : 8 бит
Тип развёртки                            : Прогрессивная
Метод сжатия                             : С потерями
Бит/(Пиксели*Кадры)                      : 0.401
Размер потока                            : 1,71 Гбайт (83%)
Библиотека кодирования                   : XviD 1.2.1 (UTC 2008-12-04)
Аудио
Идентификатор                            : 1
Формат                                   : AC-3
Формат/Информация                        : Audio Coding 3
Расширение режима                        : CM (complete main)
Параметр Endianness формата              : Big
Идентификатор кодека                     : 2000
Продолжительность                        : 2 ч. 3 м.
Вид битрейта                             : Постоянный
Битрейт                                  : 384 Кбит/сек
Каналы                                   : 6 каналов
Расположение каналов                     : Front: L C R, Side: L R, LFE
Частота                                  : 48,0 КГц
Битовая глубина                          : 16 бит
Метод сжатия                             : С потерями
Размер потока                            : 338 Мбайт (16%)
Выравнивание                             : Разделение по промежуткам
Продолжительность промежутка             : 42  мс. (1,00 видеокадр)
Время предзагрузки промежутка            : 500  мс.

Скриншоты



Последний раз редактировалось: bbk (2016-08-04 07:33), всего редактировалось 1 раз

Создавать темы 04-Авг-2016 02:11

[Профиль]  [ЛС] 

MaKs_KZ

Стаж: 6 лет 1 месяц

Сообщений: 55

Симпатии: 3

Вы мне скажите качество звука! Как? Лицуха ?

Комментарий от ruhal


да, лицензия

Создавать темы 04-Авг-2016 20:16

[Профиль]  [ЛС] 

Powered by GMC

Стаж: 2 года 1 месяц

Сообщений: 202

Симпатии: 31

http://tas-ix.me/viewtopic.php?t=114111 Этот лутшеееееееее!! скачай тут! я уже смотрел тут не то картина! слабый! http://tas-ix.me/viewtopic.php?t=114111

Создавать темы 04-Авг-2016 21:40

[Профиль]  [ЛС] 

TOR

Стаж: 5 лет 1 месяц

Сообщений: 4

film kak?

Создавать темы 11-Авг-2016 20:24

[Профиль]  [ЛС] 

Don_OmaR

Стаж: 5 лет 9 месяцев

Сообщений: 90

Симпатии: 5

Картинка тут не очень впечатляет, я пока подожду получше картинки. В мире тоже пока нету ничего...

Создавать темы 27-Авг-2016 08:22

[Профиль]  [ЛС] 

Powered by GMC

Стаж: 2 года 1 месяц

Сообщений: 202

Симпатии: 31

979775Картинка тут не очень впечатляет, я пока подожду получше картинки. В мире тоже пока нету ничего...
есть качества! WEB-DL 1080

Создавать темы 27-Авг-2016 12:46

[Профиль]  [ЛС] 
Показать сообщения:    
Ответить на тему

Текущее время: 16-Дек 21:28

Часовой пояс: UTC + 5



Вы не можете начинать темы
Вы не можете отвечать на сообщения
Вы не можете редактировать свои сообщения
Вы не можете удалять свои сообщения
Вы не можете голосовать в опросах
Вы не можете прикреплять файлы к сообщениям
Вы не можете скачивать файлы