Без чувств / Senseless (Пенелопа Сфирис) [1998 г., мелодрама, комедия, DVDRip-AVC]

Ответить на тему
 

Michel ®

Стаж: 7 лет

Сообщений: 78

Симпатии: 5

Без чувств / Senseless
Год выпуска: 1998
Страна: США
Жанр: мелодрама, комедия
Продолжительность: 01:29:13
Перевод: Профессиональный (многоголосый, закадровый)
Режиссер: Пенелопа Сфирис
В ролях: Марлон Уайанс, Дэвид Спейд, Мэттью Лиллард, Тамара Тейлор, Брэд Дуриф, Рип Торн, Эстер Скотт, Дебра Джо Рапп, Марк Кристофер Лоуренс, Джон Ингл
Описание: Бедный студент Дэррил Уизерспун трудится на четырех работах, но денег на оплату счетов всё равно не хватает. В надежде добыть еще немного средств Дэррил соглашается принять участие в сомнительном медицинском эксперименте. Молодой человек становится чуть ли не супергероем, но неожиданно о себе дают знать странные побочные эффекты…
Качество: DVDRip-AVC
Формат: MKV
Видео: AVC, [email protected], 2507 Кбит/с
Аудио: AC3, 6 ch, 384 Кбит/с

MediaInfo

Общее
Уникальный идентификатор : 194036223445587485015355576335262340301 (0x91FA046DF79D34BF87299485C8D4D4CD)
Полное имя : F:\AVC\Bez.chuvstv.1998.x264.DVDRip.AVC.mkv
Формат : Matroska
Версия формата : Version 4 / Version 2
Размер файла : 1,84 Гбайт
Продолжительность : 1 ч. 29 м.
Общий поток : 2949 Кбит/сек
Название фильма : Release for http://netcom.uz/
Дата кодирования : UTC 2016-08-29 18:16:30
Программа кодирования : mkvmerge v7.5.0 ('Glass Culture') 64bit built on Jan 4 2015 16:48:44
Библиотека кодирования : libebml v1.3.1 + libmatroska v1.4.2
Attachements : poster.jpg
DURATION : 01:29:13.632000000
NUMBER_OF_FRAMES : 167301
NUMBER_OF_BYTES : 256974336
_STATISTICS_WRITING_APP : mkvmerge v7.5.0 ('Glass Culture') 64bit built on Jan 4 2015 16:48:44
_STATISTICS_WRITING_DATE_UTC : 2016-08-29 18:16:30
_STATISTICS_TAGS : BPS DURATION NUMBER_OF_FRAMES NUMBER_OF_BYTES
Видео
Идентификатор : 1
Формат : AVC
Формат/Информация : Advanced Video Codec
Профиль формата : [email protected]
Параметр CABAC формата : Да
Параметр ReFrames формата : 6 кадров
Идентификатор кодека : V_MPEG4/ISO/AVC
Продолжительность : 1 ч. 29 м.
Битрейт : 2507 Кбит/сек
Ширина : 720 пикселей
Высота : 548 пикселей
Соотношение сторон : 1,85:1
Режим частоты кадров : Постоянный
Частота кадров : 25,000 кадров/сек
Цветовое пространство : YUV
Субдискретизация насыщенности : 4:2:0
Битовая глубина : 8 бит
Тип развёртки : Прогрессивная
Бит/(Пиксели*Кадры) : 0.254
Размер потока : 1,56 Гбайт (85%)
Заголовок : Bez_chuvstv_DVDRip_AVC_by_CARTER
Библиотека кодирования : x264 core 104 r1713 c276662
Настройки программы : cabac=1 / ref=6 / deblock=1:-2:-1 / analyse=0x3:0x133 / me=umh / subme=10 / psy=1 / psy_rd=0.95:0.20 / mixed_ref=1 / me_range=28 / chroma_me=1 / trellis=2 / 8x8dct=1 / cqm=0 / deadzone=21,11 / fast_pskip=1 / chroma_qp_offset=-3 / threads=6 / sliced_threads=0 / nr=0 / decimate=1 / interlaced=0 / constrained_intra=0 / bframes=9 / b_pyramid=2 / b_adapt=2 / b_bias=0 / direct=3 / weightb=1 / open_gop=0 / weightp=2 / keyint=250 / keyint_min=25 / scenecut=40 / intra_refresh=0 / rc=crf / mbtree=0 / crf=18.6 / qcomp=0.60 / qpmin=10 / qpmax=51 / qpstep=4 / ip_ratio=1.40 / pb_ratio=1.30 / aq=1:0.90
Язык : English
Default : Да
Forced : Нет
Коэффициенты матрицы : BT.601
colour_range : Limited
DURATION : 01:29:13.640000000
NUMBER_OF_FRAMES : 133841
NUMBER_OF_BYTES : 1715444352
_STATISTICS_WRITING_APP : mkvmerge v7.5.0 ('Glass Culture') 64bit built on Jan 4 2015 16:48:44
_STATISTICS_WRITING_DATE_UTC : 2016-08-29 18:16:30
_STATISTICS_TAGS : BPS DURATION NUMBER_OF_FRAMES NUMBER_OF_BYTES
Аудио
Идентификатор : 2
Формат : AC-3
Формат/Информация : Audio Coding 3
Расширение режима : CM (complete main)
Параметр Endianness формата : Big
Идентификатор кодека : A_AC3
Продолжительность : 1 ч. 29 м.
Вид битрейта : Постоянный
Битрейт : 384 Кбит/сек
Каналы : 6 каналов
Расположение каналов : Front: L C R, Side: L R, LFE
Частота : 48,0 КГц
Битовая глубина : 16 бит
Метод сжатия : С потерями
Размер потока : 245 Мбайт (13%)
Заголовок : MVO
Язык : Russian
Default : Да
Forced : Нет

Скриншоты



Последний раз редактировалось: Michel (2016-08-30 06:54), всего редактировалось 3 раз(а)

Создавать темы 29-Авг-2016 23:50

[Профиль]  [ЛС] 
Показать сообщения:    
Ответить на тему

Текущее время: 14-Дек 22:05

Часовой пояс: UTC + 5



Вы не можете начинать темы
Вы не можете отвечать на сообщения
Вы не можете редактировать свои сообщения
Вы не можете удалять свои сообщения
Вы не можете голосовать в опросах
Вы не можете прикреплять файлы к сообщениям
Вы не можете скачивать файлы