Черепашки-ниндзя 2 / Teenage Mutant Ninja Turtles: Out of the Shadows (Дэйв Грин) [2016, США, Гонконг, Китай, Канада, фантастика, боевик, комедия, приключения, WEB-DLRip] [iTunes]

Ответить на тему
 

ruhal ®

Стаж: 2 года 6 месяцев

Сообщений: 1181

Симпатии: 1836

- -Черепашки-ниндзя 2 / Teenage Mutant Ninja Turtles: Out of the Shadows- Страна: США, Гонконг, Китай, Канада
Жанр: фантастика, боевик, комедия, приключения
Год выпуска: 2016
Продолжительность: 01:44:20-Перевод: Профессиональный (дублированный) iTunes
Cубтитры: нет-Режиссер: Дэйв Грин-В ролях: Меган Фокс, Стивен Амелл, Алан Ричсон, Уилл Арнетт, Стефен Фаррелли, Алессандра Амброзио, Брэд Гэррет, Тайлер Перри-Описание: Долгое время черепашки-ниндзя скрывались от людей в лабиринтах городской канализации. На протяжении нескольких лет учитель Сплинтер обучал их боевым искусствам и прививал им чувство справедливости. В один прекрасный момент им пришлось подняться наверх, чтобы спасти Нью-Йорк от Шредера, предводителя Клана Футов, захватившего власть в Нью-Йорке. Вместе с отважным репортером Эйприл и ее оператором Верном, бесстрашные воины смогли одержать победу и очистить любимый город от преступности. Леонардо, Микеланджело, Рафаэль и Донателло нашли свое предназначение в этом мире и стали защитниками своего города. Они навели порядок в Нью-Йорке и с чистой совестью могли отправиться на покой, но однажды им вновь пришлось столкнуться с могущественным врагом, угрожающим их городу.-Качество видео: WEB-DLRip
Формат видео: AVI
Видео: Xvid 720x304 23.976fps 1472kbps
Аудио: Dolby AC3 48000Hz 6ch 384kbps
-

MI

General
Complete name : E:\Films\Teenage.Mutant.Ninja.Turtles.Out.of.the.Shadows.2016.WEB-DLRip.1.46Gb.avi
Format : AVI
Format/Info : Audio Video Interleave
File size : 1.46 GiB
Duration : 1h 52mn
Overall bit rate : 1 864 Kbps
Video
ID : 0
Format : MPEG-4 Visual
Format profile : Advanced [email protected]
Format settings, BVOP : 1
Format settings, QPel : No
Format settings, GMC : No warppoints
Format settings, Matrix : Custom
Codec ID : XVID
Codec ID/Hint : XviD
Duration : 1h 52mn
Bit rate : 1 473 Kbps
Width : 720 pixels
Height : 304 pixels
Display aspect ratio : 2.35:1
Frame rate : 23.976 fps
Color space : YUV
Chroma subsampling : 4:2:0
Bit depth : 8 bits
Scan type : Progressive
Compression mode : Lossy
Bits/(Pixel*Frame) : 0.281
Stream size : 1.15 GiB (79%)
Writing library : XviD 73
Audio
ID : 1
Format : AC-3
Format/Info : Audio Coding 3
Mode extension : CM (complete main)
Format settings, Endianness : Big
Codec ID : 2000
Duration : 1h 52mn
Bit rate mode : Constant
Bit rate : 384 Kbps
Channel(s) : 6 channels
Channel positions : Front: L C R, Side: L R, LFE
Sampling rate : 48.0 KHz
Bit depth : 16 bits
Compression mode : Lossy
Stream size : 308 MiB (21%)
Alignment : Aligned on interleaves
Interleave, duration : 64 ms (1.54 video frames)
Interleave, preload duration : 192 ms
Title : iTunes

Скриншот c названием фильма

Скриншоты





Последний раз редактировалось: ruhal (2016-11-01 16:53), всего редактировалось 1 раз

Создавать темы 30-Авг-2016 07:53

[Профиль]  [ЛС] 

sam175

Стаж: 1 год 7 месяцев

Сообщений: 33

Симпатии: 2

ruhal, мужыыыыыг! Спасибо, качаю.

Создавать темы 30-Авг-2016 15:09

[Профиль]  [ЛС] 

ruhal ®

Стаж: 2 года 6 месяцев

Сообщений: 1181

Симпатии: 1836

Вот качество 1080p

Создавать темы 30-Авг-2016 15:20

[Профиль]  [ЛС] 

Razalina

Стаж: 4 года 8 месяцев

Сообщений: 65

Симпатии: 74

Раздача золотая, а скачка учтена. ai

Создавать темы 30-Авг-2016 22:44

[Профиль]  [ЛС] 

Powered by GMC

Стаж: 2 года

Сообщений: 202

Симпатии: 31

979963Раздача золотая, а скачка учтена. ai
Да и мне тоже так было в прошлих скачек

Создавать темы 30-Авг-2016 22:51

[Профиль]  [ЛС] 

amirNim

Стаж: 6 лет

Сообщений: 20

Симпатии: 2

Рафаелья по ходу темнокожий играет

Создавать темы 31-Авг-2016 10:36

[Профиль]  [ЛС] 

ruhal ®

Стаж: 2 года 6 месяцев

Сообщений: 1181

Симпатии: 1836

980107Рафаелья по ходу темнокожий играет
Алан Ритчсон

Создавать темы 31-Авг-2016 12:07

[Профиль]  [ЛС] 

inferno2003

Стаж: 1 год 8 месяцев

Сообщений: 3

ФИЛЬМ ващеееееееееееееееее клааааааааааааааааааааасссс !!!!!!!!!!!!!!!!!!!!!!!!!!!!!!!!!!!!!!!!!!!

Создавать темы 31-Авг-2016 21:33

[Профиль]  [ЛС] 

eeed

Стаж: 6 лет 9 месяцев

Сообщений: 63

Симпатии: 6

прикольные шутки у мики

Создавать темы 01-Сен-2016 14:08

[Профиль]  [ЛС] 

Serj-kill

Стаж: 1 год 2 месяца

Сообщений: 56

Симпатии: 2

как качество?

Комментарий от ruhal


отличное

Создавать темы 04-Ноя-2016 12:11

[Профиль]  [ЛС] 
Показать сообщения:    
Ответить на тему

Текущее время: 24-Окт 16:24

Часовой пояс: UTC + 5



Вы не можете начинать темы
Вы не можете отвечать на сообщения
Вы не можете редактировать свои сообщения
Вы не можете удалять свои сообщения
Вы не можете голосовать в опросах
Вы не можете прикреплять файлы к сообщениям
Вы не можете скачивать файлы