Граница / Frontière(s) (Ксавье Жанс / Xavier Gens) [2007 г., ужасы, триллер, BDRip 720p / 60fps] | Лицензия (DUB) + Original (French)

Ответить на тему
 

kat222000 ®

Стаж: 6 лет 6 месяцев

Сообщений: 608

Симпатии: 1055


Граница / Frontière(s)«Приготовьтесь к настоящему кошмару!» Страна: Франция, Швейцария
Жанр: фантастика, боевик, приключения
Год выпуска: 2007
Продолжительность: 01:48:09
Перевод: Профессиональный (полное дублирование)
Субтитры: Русские | Полные-Режиссер: Ксавье Жанс / Xavier Gens-В ролях: Карина Теста, Самюэль Ле Бьян, Эстель Лефебюр, Орельен Вик, Дэвид Саракино, Чемс Дамани, Мод Форже, Амели Доре, Розин Фавей, Адель Беншериф-Описание: Преступная банда после ряда дерзких ограблений скрывается от правосудия в близлежащих лесах. Скитаясь в поисках временно прибежища, они выходят к мотелю. Хозяева спасительного пристанища не отличаются гостеприимством. Но даже самые страшные фантазии не в состоянии сравниться с ожидающей несчастных реальностью. Совсем скоро неудавшиеся бандиты поймут, что стали пленниками каннибалов, которые уготовили своим постояльцам ужасную смерть…- -Возраст: зрителям, достигшим 18 лет-Рейтинг MPAA: лицам до 17 лет просмотр запрещен- Качество видео: BDRip 720p | 60 fps
Формат видео: MKV
Видео кодек: AVC
Аудио кодек: AC3
Видео: 1280x544 (2.35:1), 59.940 fps, AVC ~5 811 kbps avg, 0.130 bit/pixel
Аудио 1: 48 kHz, AC3 Dolby Digital, 3/2 (L,C,R,l,r) + LFE ch, ~640.00 kbps avg (Русский | DUB)
Аудио 2: 48 kHz, AC3 Dolby Digital, 3/2 (L,C,R,l,r) + LFE ch, ~640.00 kbps avg (French | Original)
Навигация по главам: есть-

〤 ОтчетМедиаИнфо 〤

General
Unique ID : 254469433769482229478844399243686755152 (0xBF7107BDFDD66AB28A6E90DC6466BB50)
Format : Matroska
Format version : Version 4 / Version 2
File size : 5.47 GiB
Duration : 1h 48mn
Overall bit rate : 7 235 Kbps
Encoded date : UTC 2014-08-17 03:11:50
Writing application : mkvmerge v6.9.1 ('Blue Panther') 64bit built on Apr 18 2014 18:23:38
Writing library : libebml v1.3.0 + libmatroska v1.4.1
Video
ID : 1
Format : AVC
Format/Info : Advanced Video Codec
Format profile : [email protected]
Format settings, CABAC : Yes
Format settings, ReFrames : 9 frames
Codec ID : V_MPEG4/ISO/AVC
Bit rate : 5 811 Kbps
Width : 1 280 pixels
Height : 544 pixels
Display aspect ratio : 2.35:1
Frame rate mode : Variable
Original frame rate : 59.940 fps
Color space : YUV
Chroma subsampling : 4:2:0
Bit depth : 8 bits
Scan type : Progressive
Writing library : x264 core 130 r2273 b3065e6
Encoding settings : cabac=1 / ref=9 / deblock=1:-1:-1 / analyse=0x3:0 / me=umh / subme=9 / psy=1 / psy_rd=1.00:0.10 / mixed_ref=1 / me_range=42 / chroma_me=0 / trellis=2 / 8x8dct=1 / cqm=0 / deadzone=21,11 / fast_pskip=0 / chroma_qp_offset=-3 / threads=12 / lookahead_threads=1 / sliced_threads=0 / nr=0 / decimate=0 / interlaced=0 / bluray_compat=0 / constrained_intra=0 / bframes=6 / b_pyramid=2 / b_adapt=2 / b_bias=0 / direct=1 / weightb=1 / open_gop=0 / weightp=2 / keyint=594 / keyint_min=59 / scenecut=40 / intra_refresh=0 / rc=crf / mbtree=0 / crf=15.0 / qcomp=0.60 / qpmin=0 / qpmax=69 / qpstep=4 / ip_ratio=1.40 / pb_ratio=1.30 / aq=0
Language : English
Default : Yes
Forced : No
Audio #1
ID : 2
Format : AC-3
Format/Info : Audio Coding 3
Mode extension : CM (complete main)
Format settings, Endianness : Big
Codec ID : A_AC3
Duration : 1h 48mn
Bit rate mode : Constant
Bit rate : 640 Kbps
Channel(s) : 6 channels
Channel positions : Front: L C R, Side: L R, LFE
Sampling rate : 48.0 KHz
Bit depth : 16 bits
Compression mode : Lossy
Stream size : 495 MiB (9%)
Title : Дубляж
Language : Russian
Default : Yes
Forced : No
Audio #2
ID : 3
Format : AC-3
Format/Info : Audio Coding 3
Mode extension : CM (complete main)
Format settings, Endianness : Big
Codec ID : A_AC3
Duration : 1h 48mn
Bit rate mode : Constant
Bit rate : 640 Kbps
Channel(s) : 6 channels
Channel positions : Front: L C R, Side: L R, LFE
Sampling rate : 48.0 KHz
Bit depth : 16 bits
Compression mode : Lossy
Stream size : 495 MiB (9%)
Title : Original
Language : French
Default : No
Forced : No
Text
ID : 4
Format : UTF-8
Codec ID : S_TEXT/UTF8
Codec ID/Info : UTF-8 Plain Text
Title : Полные
Language : Russian
Default : No
Forced : No
Menu
00:00:00.000 : en:Chapter 1
00:04:16.005 : en:Chapter 2
00:11:46.455 : en:Chapter 3
00:17:03.522 : en:Chapter 4
00:24:01.940 : en:Chapter 5
00:33:31.009 : en:Chapter 6
00:41:18.476 : en:Chapter 7
00:46:37.836 : en:Chapter 8
00:53:35.253 : en:Chapter 9
00:58:31.591 : en:Chapter 10
01:05:40.269 : en:Chapter 11
01:10:28.724 : en:Chapter 12
01:16:28.083 : en:Chapter 13
01:24:30.482 : en:Chapter 14
01:34:45.096 : en:Chapter 15
01:42:03.826 : en:Chapter 16
01:48:09.107 : en:Chapter 17

〤 Скриншоты 〤



© Оформление by kat222000

Создавать темы 07-Сен-2016 23:51

[Профиль]  [ЛС] 
Показать сообщения:    
Ответить на тему

Текущее время: 19-Окт 08:43

Часовой пояс: UTC + 5



Вы не можете начинать темы
Вы не можете отвечать на сообщения
Вы не можете редактировать свои сообщения
Вы не можете удалять свои сообщения
Вы не можете голосовать в опросах
Вы не можете прикреплять файлы к сообщениям
Вы не можете скачивать файлы