Дура (Максим Коростышевский) [2005 г., трагикомедия, мелодрама, DVDRip]

Ответить на тему
 

kat222000 ®

Стаж: 6 лет 7 месяцев

Сообщений: 608

Симпатии: 1055

Дура- -Год выпуска: 2005
Жанр: трагикомедия, мелодрама
Продолжительность: 01:34:36
Сценарий: Наталья Назарова, Максим Коростышевский
Оператор: Мария Соловьева
Композитор: Сергей Шустицкий, Иван Волков
Продюсеры: Максим Коростышевский, Лариса Исаева
Производство: компания "Д'Макс"-Режиссер: Максим Коростышевский-В ролях: Оксана Коростышевская, Евгений Редько, Регина Мянник, Александр Балуев, Ольга Волкова, Дмитрий Шевченко, Игорь Золотовицкий, Татьяна Лютаева, Эдуард Радзюкевич, Сергей Мигицко, Вениамин Смехов, Сергей Гармаш, Константин Глушков, Наталья Назарова, Анна Ходюш, Михаил Церишенко, Дарья Яковлева
Описание: Ульяна Тулина (Оксана Коростышевская) — необычный человек: во взрослом теле душа странного и наивного ребёнка. Её поступки, импульсивные и нелепые, то смешат, то удивляют, а то и раздражают окружающих. Единственный родной человек, который заботится об Ульяне, — её сестра-двойняшка Лиза (Регина Мянник), актриса с не вполне складывающейся карьерой. Хрупкая гармония отношений рушится, когда в доме Тулиных появляется мужчина. Саша Мушкин (Евгений Редько), начинающий писатель, мечтающий прославиться, неожиданно для самого себя становится нужным одновременно обеим сёстрам. Но только одна из них становится героиней, соавтором и музой его нового романа. Однако реальная жизнь — не литературный жанр. Она сама допишет нужный финал.- -Награды:
2004г. - Приз за лучшую режиссерскую работу на КФ "Амурская осень" в Благовещенске (Максим Коростышевский).
2004г. - Приз за лучшую женскую роль на КФ "Амурская осень" в Благовещенске (Оксана Коростышевская).
2004г. - Специальный приз президента кинофорума "Амурская осень" на КФ "Амурская осень" в Благовещенске (Оксана Коростышевская).
2005г. - Диплом жюри игрового кино за музыку на КФ "Окно в Европу" в Выборге (Иван Волков, Сергей Шустицкий).-Качество: DVDRip
Формат: AVI /совместим с бытовыми плеерами/ Размер 1/6 DVD5
Видео кодек: XviD
Аудио кодек: MP3
Видео: 688x368 (1.87:1), 25 fps, XviD build 50 ~962 kbps avg, 0.15 bit/pixel
Аудио: 48 kHz, MPEG Layer 3, 2 ch, ~128.00 kbps avg-

MediaInfo

General
Complete name : E:\Фильмы\Видео\Dura.2005_DVDRip.avi
Format : AVI
Format/Info : Audio Video Interleave
File size : 744 MiB
Duration : 1h 34mn
Overall bit rate : 1 100 Kbps
Movie name : Дура
Director : zim2001
Writing application : VirtualDubMod 1.5.10.2 (build 2540/release)
Copyright : torrents.ru
Video
ID : 0
Format : MPEG-4 Visual
Format profile : Advanced [email protected]
Format settings, BVOP : 1
Format settings, QPel : No
Format settings, GMC : No warppoints
Format settings, Matrix : Default (H.263)
Codec ID : XVID
Codec ID/Hint : XviD
Duration : 1h 34mn
Bit rate : 962 Kbps
Width : 688 pixels
Height : 368 pixels
Display aspect ratio : 1.85:1
Frame rate : 25.000 fps
Color space : YUV
Chroma subsampling : 4:2:0
Bit depth : 8 bits
Scan type : Progressive
Compression mode : Lossy
Bits/(Pixel*Frame) : 0.152
Stream size : 651 MiB (87%)
Writing library : XviD 1.2.1 (UTC 2008-12-04)
Audio
ID : 1
Format : MPEG Audio
Format version : Version 1
Format profile : Layer 3
Codec ID : 55
Codec ID/Hint : MP3
Duration : 1h 34mn
Bit rate mode : Constant
Bit rate : 128 Kbps
Channel(s) : 2 channels
Sampling rate : 48.0 KHz
Compression mode : Lossy
Stream size : 86.6 MiB (12%)
Alignment : Aligned on interleaves
Interleave, duration : 40 ms (1.00 video frame)
Interleave, preload duration : 504 ms
Writing library : LAME3.97
Encoding settings : -m s -V 4 -q 2 -lowpass 17 -b 128
-

Скриншоты

Создавать темы 26-Дек-2013 06:44

[Профиль]  [ЛС] 

Ирина

Стаж: 3 года 10 месяцев

Сообщений: 57

Симпатии: 11

Один из моих самых любимых фильмов. А знаете ли Вы, что Максим и Оксана Коростышевские - муж и жена. Когда Максим собрался снимать этот фильм, он сказал Оксане, что если она не пройдет кастинг, то он с ней разведется. Что оставалось бедной женщине...

Создавать темы 12-Сен-2016 01:55

[Профиль]  [ЛС] 
Показать сообщения:    
Ответить на тему

Текущее время: 24-Ноя 21:47

Часовой пояс: UTC + 5



Вы не можете начинать темы
Вы не можете отвечать на сообщения
Вы не можете редактировать свои сообщения
Вы не можете удалять свои сообщения
Вы не можете голосовать в опросах
Вы не можете прикреплять файлы к сообщениям
Вы не можете скачивать файлы