Смертельное Искушение / Lethal Seduction (Нэнси Леопарди) [2015, США, триллер, WEB-DLRip] (MVO)

Ответить на тему
 

bbk ®

Стаж: 7 лет 1 месяц

Сообщений: 435

Симпатии: 479

Смертельное Искушение / Lethal Seduction
Страна: США
Жанр: триллер
Год выпуска: 2015
Продолжительность: 01:22:51
Перевод: Любительский (многоголосый закадровый) ['Синема-УС']
Cубтитры: нет
Режиссер: Нэнси Леопарди
В ролях: Аманда Детмер, Дина Мейер, Калеб Руминер, Сэм Лернер, Брайан Смит, Tessa Harnetiaux, Роберт Масчио, Доминик Бёрджесс, Рик Овертон, Уэс Лагарде
Описание: Выпускник школы Марк Ричардс никогда не отталкивал свою чересчур заботливую мать-вдову Таню, и был хорошим сыном, пока готовился поступить в Принстон. Тем не менее, соблазненный коварной женщиной Кариссой Кенсингтон, он оказался между двух сильных резрассудных женщины, одна из которых к тому же сошла с ума.
 
ВНИМАНИЕ: ПРИСУТСТВУЕТ РЕКЛАМА!
Качество видео: WEB-DLRip
Формат видео: AVI
Видео: XviD, 720x400(16:9), 23.976 fps, 1044 kb/s
Аудио: AC3, 48.0 kHz, 128 kb/s, 2 ch

MediaInfo

General
Complete name : D:\Downloads\Lethal.Seduction.2015.P.WEB-DLRip.700MB.avi
Format : AVI
Format/Info : Audio Video Interleave
File size : 700 MiB
Duration : 1 h 22 min
Overall bit rate : 1 181 kb/s
Writing application : VirtualDubMod 1.5.10.2 (build 2540/release)
Writing library : VirtualDubMod build 2540/release
Video
ID : 0
Format : MPEG-4 Visual
Format profile : Advanced [email protected]
Format settings, BVOP : 2
Format settings, QPel : No
Format settings, GMC : No warppoints
Format settings, Matrix : Custom
Codec ID : XVID
Codec ID/Hint : XviD
Duration : 1 h 22 min
Bit rate : 1 044 kb/s
Width : 720 pixels
Height : 400 pixels
Display aspect ratio : 16:9
Frame rate : 23.976 (24000/1001) FPS
Color space : YUV
Chroma subsampling : 4:2:0
Bit depth : 8 bits
Scan type : Progressive
Compression mode : Lossy
Bits/(Pixel*Frame) : 0.151
Stream size : 619 MiB (88%)
Writing library : XviD 1.2.1 (UTC 2008-12-04)
Audio
ID : 1
Format : AC-3
Format/Info : Audio Coding 3
Mode extension : CM (complete main)
Format settings, Endianness : Big
Codec ID : 2000
Duration : 1 h 22 min
Bit rate mode : Constant
Bit rate : 128 kb/s
Channel(s) : 2 channels
Channel positions : Front: L R
Sampling rate : 48.0 kHz
Frame rate : 31.250 FPS (1536 spf)
Compression mode : Lossy
Stream size : 75.9 MiB (11%)
Alignment : Split accross interleaves
Interleave, duration : 42 ms (1.00 video frame)
Interleave, preload duration : 500 ms

Скриншот c названием фильма

Скриншоты



Последний раз редактировалось: bbk (2016-09-14 05:51), всего редактировалось 2 раз(а)

Создавать темы 14-Сен-2016 04:39

[Профиль]  [ЛС] 
Показать сообщения:    
Ответить на тему

Текущее время: 18-Дек 06:04

Часовой пояс: UTC + 5



Вы не можете начинать темы
Вы не можете отвечать на сообщения
Вы не можете редактировать свои сообщения
Вы не можете удалять свои сообщения
Вы не можете голосовать в опросах
Вы не можете прикреплять файлы к сообщениям
Вы не можете скачивать файлы