Экипаж (Николай Лебедев) [2016, Россия, драма, приключения, триллер, BDRip] | Лицензия

Ответить на тему
 

kat222000 ®

Стаж: 6 лет 4 месяца

Сообщений: 608

Симпатии: 1055

Экипаж-Страна: Россия
Производство: Студия Тритэ
Жанр: драма, приключения, триллер
Год выпуска: 2016
Продолжительность: 02:17:21
Перевод: Не требуется [оригинал]
Субтитры: нет-Режиссер: Николай Лебедев-Авторы сценария: Тихон Корнев, Николай Куликов, Николай Лебедев-В ролях: Данила Козловский, Владимир Машков, Агне Грудите, Сергей Кемпо, Катерина Шпица, Сергей Шакуров, Сергей Газаров, Елена Яковлева-Описание: История талантливого молодого летчика Алексея Гущина. Он не признает авторитетов, предпочитая поступать в соответствии с личным кодексом чести. За невыполнение абсурдного приказа его выгоняют из военной авиации, и только чудом он получает шанс летать на гражданских самолетах.
Гущин начинает свою летную жизнь сначала. Его наставник — командир воздушного судна — суровый и принципиальный Леонид Зинченко. Его коллега — второй пилот, неприступная красавица Александра. Отношения складываются непросто. Но на грани жизни и смерти, когда земля уходит из-под ног, вокруг — огонь и пепел и только в небе есть спасение, Гущин показывает все, на что он способен. Только вместе экипаж сможет совершить подвиг и спасти сотни жизней...- -Возраст: зрителям, достигшим 6 лет-Качество видео: BDRip
Формат видео: AVI
Видео кодек: XviD
Аудио кодек: AC3
Видео: 720x304 (2.35:1), 23.976 fps, XviD build 73 ~1 730 kbps avg, 0.329 bit/pixel
Аудио: 48 kHz, AC3 Dolby Digital, AC3 Dolby Digital, 3/2 (L,C,R,l,r) + LFE ch, ~448.00 kbps avg (Русский | оригинал) -

〤 ОтчетМедиаИнфо 〤

General
Format : AVI
Format/Info : Audio Video Interleave
File size : 2.18 GiB
Duration : 2h 17mn
Overall bit rate : 2 277 Kbps
Writing application : VirtualDubMod 1.5.10.2 (build 2540/release)
Writing library : VirtualDubMod build 2540/release
Video
ID : 0
Format : MPEG-4 Visual
Format profile : Advanced [email protected]
Format settings, BVOP : 2
Format settings, QPel : No
Format settings, GMC : No warppoints
Format settings, Matrix : Custom
Codec ID : XVID
Codec ID/Hint : XviD
Duration : 2h 17mn
Bit rate : 1 730 Kbps
Width : 720 pixels
Height : 304 pixels
Display aspect ratio : 2.35:1
Frame rate : 24.000 fps
Color space : YUV
Chroma subsampling : 4:2:0
Bit depth : 8 bits
Scan type : Progressive
Compression mode : Lossy
Bits/(Pixel*Frame) : 0.329
Stream size : 1.66 GiB (76%)
Writing library : XviD 1.2.1 (UTC 2008-12-04)
Audio
ID : 1
Format : AC-3
Format/Info : Audio Coding 3
Mode extension : CM (complete main)
Format settings, Endianness : Big
Codec ID : 2000
Duration : 2h 17mn
Bit rate mode : Constant
Bit rate : 448 Kbps
Channel(s) : 6 channels
Channel positions : Front: L C R, Side: L R, LFE
Sampling rate : 48.0 KHz
Compression mode : Lossy
Stream size : 440 MiB (20%)
Alignment : Split accross interleaves]
-

〤 Скриншоты 〤



© Оформление by kat222000


Последний раз редактировалось: kat222000 (2016-06-29 11:30), всего редактировалось 1 раз

Создавать темы 30-Май-2016 23:11

[Профиль]  [ЛС] 

kat222000 ®

Стаж: 6 лет 4 месяца

Сообщений: 608

Симпатии: 1055

Перекачайте торрент, файл заменён. Спасибо!

Создавать темы 31-Май-2016 06:29

[Профиль]  [ЛС] 

emilsky

Стаж: 7 лет 1 месяц

Сообщений: 2237

Симпатии: 610

помогу с раздачей

Создавать темы 31-Май-2016 08:18

[Профиль]  [ЛС] 

Supermax83

Стаж: 5 лет 6 месяцев

Сообщений: 24

Симпатии: 3

Может хоть кто-то даст газу и нормальную скорость раздачи?

Создавать темы 05-Июн-2016 15:03

[Профиль]  [ЛС] 

Supermax83

Стаж: 5 лет 6 месяцев

Сообщений: 24

Симпатии: 3

Пиров аж 12, а раздают только 5, и общая скорость около 100kb/s дайте газу плиз. у меня скорость раздачи 500-600kb/s

Создавать темы 05-Июн-2016 15:35

[Профиль]  [ЛС] 

nor_7166

Стаж: 6 лет 7 месяцев

Сообщений: 28

классный фильм советую всем!!! спс автору

Создавать темы 08-Июн-2016 16:58

[Профиль]  [ЛС] 

Desen

Стаж: 4 года 3 месяца

Сообщений: 5

Симпатии: 1

дайте скорость плиз

Создавать темы 09-Июн-2016 01:08

[Профиль]  [ЛС] 

sunny32

Стаж: 3 года 10 месяцев

Сообщений: 52

Симпатии: 8

Интересно сделали, фильм стоит просмотру.

Создавать темы 18-Сен-2016 18:56

[Профиль]  [ЛС] 

Степан

Стаж: 1 год

Сообщений: 3

Супер фильм!!!!

Создавать темы 18-Фев-2017 17:12

[Профиль]  [ЛС] 
Показать сообщения:    
Ответить на тему

Текущее время: 24-Авг 13:53

Часовой пояс: UTC + 5



Вы не можете начинать темы
Вы не можете отвечать на сообщения
Вы не можете редактировать свои сообщения
Вы не можете удалять свои сообщения
Вы не можете голосовать в опросах
Вы не можете прикреплять файлы к сообщениям
Вы не можете скачивать файлы