Жить (Василий Сигарев) [2011, Россия, драма, DVDRip]

Ответить на тему
 

kat222000 ®

Стаж: 6 лет 6 месяцев

Сообщений: 608

Симпатии: 1055

Жить Страна: Россия, Фонд кино, Кинокомпания Коктебель
Жанр: драма
Год выпуска: 2011
Продолжительность: 01:59:02
Перевод: Оригинал
Субтитры: нет-Режиссер: Василий Сигарев-В ролях: Яна Троянова, Алексей Филимонов, Ольга Лапшина, Евгений Сытый, Анна Уколова, Марина Гаврилова, Саша Гаврилова, Дмитрий Куличков, Яна Сексте, Ирма Арендт-Описание: Человек умеет чувствовать, страдать, любить. Он умеет принять свою судьбу, даже когда та отнимает самое ценное — близких. Отнимает вместе со смыслом жизни и с желанием жить. Отнимает вместе со всем миром. Но герои фильма не готовы мириться со своими потерями. Они бросают судьбе вызов, объявляют ей войну и доходят в ней до человеческого предела. И идут дальше, по-своему побеждая…- -Возраст: зрителям, достигшим 16 лет-Рейтинг MPAA: лицам до 17 лет обязательно присутствие взрослого-Качество видео: DVDRip
Формат видео: AVI
Видео кодек: XviD
Аудио кодек: AC3
Видео: 720x384 (1.85:1), 25.000 fps, XviD 1.2.1 ~2 073 kbps avg, 0.300 bit/pixel
Аудио: 48 kHz, AC3 Dolby Digital, 3/2 (L,C,R,l,r) + LFE ch, ~384.00 kbps avg (Русский | Оригинал)-

〤 ОтчетМедиаИнфо 〤

General
Format : AVI
Format/Info : Audio Video Interleave
Format profile : OpenDML
File size : 2.05 GiB
Duration : 1h 59mn
Overall bit rate : 2 469 Kbps
Writing application : VirtualDubMod 1.5.10.2 (build 2540/release)
Original source form/Name : Movie
Video
ID : 0
Format : MPEG-4 Visual
Format profile : Advanced [email protected]
Format settings, BVOP : No
Format settings, QPel : No
Format settings, GMC : No warppoints
Format settings, Matrix : Custom
Codec ID : XVID
Codec ID/Hint : XviD
Duration : 1h 59mn
Bit rate : 2 073 Kbps
Width : 720 pixels
Height : 384 pixels
Display aspect ratio : 1.85:1
Frame rate : 25.000 fps
Color space : YUV
Chroma subsampling : 4:2:0
Bit depth : 8 bits
Scan type : Progressive
Compression mode : Lossy
Bits/(Pixel*Frame) : 0.300
Stream size : 1.72 GiB (84%)
Writing library : XviD 1.2.1 (UTC 2008-12-04)
Audio
ID : 1
Format : AC-3
Format/Info : Audio Coding 3
Mode extension : CM (complete main)
Format settings, Endianness : Big
Codec ID : 2000
Duration : 1h 59mn
Bit rate mode : Constant
Bit rate : 384 Kbps
Channel(s) : 6 channels
Channel positions : Front: L C R, Side: L R, LFE
Sampling rate : 48.0 KHz
Bit depth : 16 bits
Compression mode : Lossy
Delay relative to video : 1s 800ms
Stream size : 327 MiB (16%)
Alignment : Split accross interleaves
Interleave, duration : 40 ms (1.00 video frame)
Interleave, preload duration : 500 ms
-

〤 Скриншоты 〤



© Оформление by kat222000

Создавать темы 19-Сен-2016 00:28

[Профиль]  [ЛС] 
Показать сообщения:    
Ответить на тему

Текущее время: 19-Окт 08:33

Часовой пояс: UTC + 5



Вы не можете начинать темы
Вы не можете отвечать на сообщения
Вы не можете редактировать свои сообщения
Вы не можете удалять свои сообщения
Вы не можете голосовать в опросах
Вы не можете прикреплять файлы к сообщениям
Вы не можете скачивать файлы