Раненая страна / Wounded Land (Эрез Тадмор) [2015, Израиль, драма, WEBRip] (DVO : Колобок)

Ответить на тему
 

bbk ®

Стаж: 6 лет 9 месяцев

Сообщений: 435

Симпатии: 479

Раненая страна / Wounded Land
Страна: Израиль
Жанр: драма
Год выпуска: 2015
Продолжительность: 01:17:25
Перевод: Любительский (двухголосый закадровый), Колобок
Cубтитры: Иврит (вшитые), русские (внешние .srt, .ass)
Режиссер: Эрез Тадмор
В ролях: Майса Абд Эльхади, Моше Ашкенази, Рои Асаф, Тауфик Бархом, Йоав Барлев, Двир Бенедек, Керен Бергер, Томер Эини, Ицик Голан, Адва Шарон Илан
Описание: Террорист взрывает бомбу в Нижнем Городе Хайфы. Смертник в критическом состоянии доставлен в больницу вместе с другими ранеными в теракте. Эта ночь меняет многое в жизни участников событий: четверых офицеров полиции, ответственных за охрану террориста в больнице; врача и медсестры, оказавшихся на дежурстве; группы раненых и их родственников, оказавшихся в непосредственной близости от террориста… В центре событий оказывается Коби Амар, 37-летний полицейский, отец двоих детей. Коби сталкивается с семейными и профессиональными проблемами, когда десятилетний сын его начальника погибает в теракте, а его собственный сын исчезает…
 
ПРИМЕЧАНИЕ: ПРИСУТСТВУЕТ РЕКЛАМА!
Качество видео: WEBRip
Формат видео: AVI
Видео: XviD, 720x400(16:9), 23.976 fps, 2317 Кбит/с
Аудио: AC3, 48.0 kHz, 2 ch, 192 Кбит/с

MediaInfo

General
Complete name : Wounded Land (2015) WEBRip.avi
Format : AVI
Format/Info : Audio Video Interleave
Format profile : OpenDML
File size : 1.36 GiB
Duration : 1 h 17 min
Overall bit rate : 2 522 kb/s
Writing application : XviD4PSP 6.0 / 54.29.105
Video
ID : 0
Format : xvid
Codec ID : xvid
Duration : 1 h 17 min
Bit rate : 2 317 kb/s
Width : 720 pixels
Height : 400 pixels
Display aspect ratio : 16:9
Frame rate : 23.976 FPS
Scan type : Progressive
Bits/(Pixel*Frame) : 0.336
Stream size : 1.25 GiB (92%)
Audio
ID : 1
Format : AC-3
Format/Info : Audio Coding 3
Mode extension : CM (complete main)
Format settings, Endianness : Big
Codec ID : 2000
Duration : 1 h 17 min
Bit rate mode : Constant
Bit rate : 192 kb/s
Channel(s) : 2 channels
Channel positions : Front: L R
Sampling rate : 48.0 kHz
Frame rate : 31.250 FPS (1536 spf)
Bit depth : 16 bits
Compression mode : Lossy
Stream size : 106 MiB (8%)
Alignment : Aligned on interleaves
Interleave, duration : 32 ms (0.77 video frame)

Скриншот c названием фильма

Скриншоты



Последний раз редактировалось: bbk (2016-09-20 13:41), всего редактировалось 1 раз

Создавать темы 20-Сен-2016 09:00

[Профиль]  [ЛС] 
Показать сообщения:    
Ответить на тему

Текущее время: 19-Авг 06:48

Часовой пояс: UTC + 5



Вы не можете начинать темы
Вы не можете отвечать на сообщения
Вы не можете редактировать свои сообщения
Вы не можете удалять свои сообщения
Вы не можете голосовать в опросах
Вы не можете прикреплять файлы к сообщениям
Вы не можете скачивать файлы