Акулий торнадо 4: Пробуждение / Sharknado 4: The 4th Awakens (Энтони Ферранте) [2016, США, ужасы, фантастика, WEBRip] (VO : И.Жигалюк(vannike79))

Ответить на тему
 

bbk ®

Стаж: 7 лет

Сообщений: 435

Симпатии: 479

Акулий торнадо 4: Пробуждение / Sharknado 4: The 4th Awakens
Страна: США
Жанр: ужасы, фантастика
Год выпуска: 2016
Продолжительность: 01:24:38
Перевод: Одноголосый закадровый, И.Жигалюк(vannike79)
Cубтитры: нет
Режиссер: Энтони Ферранте
В ролях: Айен Зиринг,Тара Рид,Масьела Луша,Коди Линли,Райан Ньюман,Имани Хаким,Дэвид
Описание: С момента последних событий, когда всё Восточное побережье оказалось разорено сильнейшим торнадо, проходит 5 лет. Оставив шокирующие события в прошлом, Фин Шеперд и его семья смогли наконец вздохнуть свободно. Но опасность вновь настигает героев. Во время их отдыха в Лас-Вегасе тысячи разнообразных акул, поднятых в воздух мощными ураганными ветрами, обрушиваются на город.
 
ПРИМЕЧАНИЕ: ПРИСУТСТВУЕТ ТЕКСТОВАЯ РЕКЛАМА!
Качество видео: WEBRip
Формат видео: AVI
Видео: XviD, 2204 kbps, 720x400, 30 fps
Аудио: AC3, 2 ch, 256 Kb/s

MediaInfo

General
Complete name : Sharknado 4 The 4th Awakens (2016) WEBRip.avi
Format : AVI
Format/Info : Audio Video Interleave
Format profile : OpenDML
File size : 1.46 GiB
Duration : 1 h 24 min
Overall bit rate : 2 469 kb/s
Movie name : Rip by basma4i
Writing application : Lavf57.41.100
Video
ID : 0
Format : MPEG-4 Visual
Format profile : [email protected]
Format settings, BVOP : No
Format settings, QPel : No
Format settings, GMC : No warppoints
Format settings, Matrix : Default (H.263)
Codec ID : XVID
Codec ID/Hint : XviD
Duration : 1 h 24 min
Bit rate : 2 200 kb/s
Width : 720 pixels
Height : 400 pixels
Display aspect ratio : 16:9
Frame rate : 30.000 FPS
Color space : YUV
Chroma subsampling : 4:2:0
Bit depth : 8 bits
Scan type : Progressive
Compression mode : Lossy
Bits/(Pixel*Frame) : 0.255
Stream size : 1.30 GiB (89%)
Writing library : XviD 67
Audio
ID : 1
Format : AC-3
Format/Info : Audio Coding 3
Mode extension : CM (complete main)
Format settings, Endianness : Big
Codec ID : 2000
Duration : 1 h 24 min
Bit rate mode : Constant
Bit rate : 256 kb/s
Channel(s) : 2 channels
Channel positions : Front: L R
Sampling rate : 44.1 kHz
Frame rate : 28.711 FPS (1536 spf)
Bit depth : 16 bits
Compression mode : Lossy
Stream size : 155 MiB (10%)
Alignment : Aligned on interleaves
Interleave, duration : 35 ms (1.04 video frame)

Скриншот c названием фильма

Скриншоты

Создавать темы 23-Сен-2016 09:01

[Профиль]  [ЛС] 

Топик был перенесен из форума Фильмы за 2016 в форум CamRip, DVDScr и т.п.
ruhal

Создавать темы 23-Сен-2016 13:00

 

Андрей Варабей

Стаж: 4 года 9 месяцев

Сообщений: 67

Симпатии: 1

Фильм просто супер.Смотрел затаив дыхание.Спец эффекты просто класс,сюжет вообще ЧЁТКИЙ,до сих пор под впечатлением. :) :) :)

Создавать темы 10-Окт-2016 19:39

[Профиль]  [ЛС] 
Показать сообщения:    
Ответить на тему

Текущее время: 13-Дек 04:40

Часовой пояс: UTC + 5



Вы не можете начинать темы
Вы не можете отвечать на сообщения
Вы не можете редактировать свои сообщения
Вы не можете удалять свои сообщения
Вы не можете голосовать в опросах
Вы не можете прикреплять файлы к сообщениям
Вы не можете скачивать файлы