Дежа вю / Deja Vu (Тони Скотт / Tony Scott) [2006 г., США, Великобритания, фантастика, боевик, триллер, BDRip-AVC / 60fps] | (DUB) + Original (Eng)

Ответить на тему
 

kat222000 ®

Стаж: 6 лет 8 месяцев

Сообщений: 608

Симпатии: 1055


Дежа вю / Deja Vu«Дежа вю считается обманом сознания... а что, если это не так?» Страна: США, Великобритания
Жанр: фантастика, боевик, триллер
Год выпуска: 2006
Продолжительность: 02:06:27
Перевод: Профессиональный (полное дублирование)
Субтитры: Русский (Full), Английский (Full)
-Режиссер: Тони Скотт / Tony Scott-Продюсер: Джерри Брукхаймер, Тед Эллиот, Дон Феррароне-В ролях: Дензел Вашингтон, Пола Пэттон, Вэл Килмер, Джеймс Кэвизел, Адам Голдберг, Элден Хенсон, Эрика Александр, Брюс Гринвуд-Описание: Каждый из нас хотя бы раз в жизни испытывал эффект дежа вю, когда нам вдруг начинает казаться, что мы знакомы с людьми, которых на самом деле раньше никогда не видели, и уже бывали в местах, где на самом деле никогда не были. И, возможно, в такие моменты кому-то приходила в голову мысль, что эти ощущения — не что иное, как предупреждения, посланные нам из прошлого, а может быть, и ключ к познанию будущего.
Агент АТФ Даг Карлин получает возможность совершать путешествия во времени, расследуя обстоятельства взрыва, произошедшего на новоорлеанском пароме. Оказавшись в прошлом, он встречает женщину, которую должны убить, и в итоге влюбляется в нее…- -Возраст: зрителям, достигшим 16 лет-Рейтинг MPAA: детям до 13 лет просмотр не желателен- Качество видео: BDRip-AVC | 60 fps
Формат видео: MKV
Видео кодек: AVC
Аудио кодек: AC3
Видео: 1024x424 (2.40:1), 59.940 fps, AVC ~4 000 kbps avg, 0.154 bit/pixel
Аудио 1: 48 kHz, AC3 Dolby Digital, 3/2 (L,C,R,l,r) + LFE ch, ~448.00 kbps avg (Русский | DUB)
Аудио 2: 48 kHz, AC3 Dolby Digital, 3/2 (L,C,R,l,r) + LFE ch, ~448.00 kbps avg (English | Original)
Навигация по главам: есть-

〤 ОтчетМедиаИнфо 〤

General
Unique ID : 242487094243256734178828367811014142118 (0xB66D50CAB4D4DB2DBFF4CAFC0925A8A6)
Format : Matroska
Format version : Version 4 / Version 2
File size : 4.33 GiB
Duration : 2h 6mn
Overall bit rate : 4 887 Kbps
Movie name : Deja Vu (2006) BDRip-AVC 60fps - R.G. HD-Films
Encoded date : UTC 2015-08-26 13:48:10
Writing application : mkvmerge v8.3.0 ('Over the Horizon') 64bit
Writing library : libebml v1.3.1 + libmatroska v1.4.2
Attachment : Yes
Video
ID : 1
Format : AVC
Format/Info : Advanced Video Codec
Format profile : [email protected]
Format settings, CABAC : Yes
Format settings, ReFrames : 12 frames
Codec ID : V_MPEG4/ISO/AVC
Bit rate : 4 000 Kbps
Width : 1 024 pixels
Height : 424 pixels
Display aspect ratio : 2.40:1
Frame rate mode : Variable
Original frame rate : 59.940 fps
Color space : YUV
Chroma subsampling : 4:2:0
Bit depth : 8 bits
Scan type : Progressive
Bits/(Pixel*Frame) : 0.154
Writing library : x264 core 146 r2538 121396c
Encoding settings : cabac=1 / ref=12 / deblock=1:-3:-3 / analyse=0x3:0x113 / me=umh / subme=11 / psy=1 / psy_rd=1.00:0.10 / mixed_ref=1 / me_range=32 / chroma_me=1 / trellis=2 / 8x8dct=1 / cqm=0 / deadzone=21,11 / fast_pskip=0 / chroma_qp_offset=-3 / threads=6 / lookahead_threads=2 / sliced_threads=0 / nr=0 / decimate=1 / interlaced=0 / bluray_compat=0 / constrained_intra=0 / bframes=7 / b_pyramid=2 / b_adapt=2 / b_bias=0 / direct=3 / weightb=1 / open_gop=0 / weightp=2 / keyint=240 / keyint_min=23 / scenecut=40 / intra_refresh=0 / rc=2pass / mbtree=0 / bitrate=4000 / ratetol=1.0 / qcomp=0.60 / qpmin=0 / qpmax=69 / qpstep=4 / cplxblur=20.0 / qblur=0.5 / ip_ratio=1.40 / pb_ratio=1.30 / aq=1:1.00
Language : English
Default : Yes
Forced : No
Audio #1
ID : 2
Format : AC-3
Format/Info : Audio Coding 3
Mode extension : CM (complete main)
Format settings, Endianness : Big
Codec ID : A_AC3
Duration : 2h 6mn
Bit rate mode : Constant
Bit rate : 448 Kbps
Channel(s) : 6 channels
Channel positions : Front: L C R, Side: L R, LFE
Sampling rate : 48.0 KHz
Bit depth : 16 bits
Compression mode : Lossy
Stream size : 406 MiB (9%)
Title : Дубляж
Language : Russian
Default : Yes
Forced : Yes
Audio #2
ID : 3
Format : AC-3
Format/Info : Audio Coding 3
Mode extension : CM (complete main)
Format settings, Endianness : Big
Codec ID : A_AC3
Duration : 2h 6mn
Bit rate mode : Constant
Bit rate : 448 Kbps
Channel(s) : 6 channels
Channel positions : Front: L C R, Side: L R, LFE
Sampling rate : 48.0 KHz
Bit depth : 16 bits
Compression mode : Lossy
Stream size : 406 MiB (9%)
Title : Original
Language : English
Default : No
Forced : No
Text #1
ID : 4
Format : UTF-8
Codec ID : S_TEXT/UTF8
Codec ID/Info : UTF-8 Plain Text
Title : Full
Language : Russian
Default : No
Forced : No
Text #2
ID : 5
Format : UTF-8
Codec ID : S_TEXT/UTF8
Codec ID/Info : UTF-8 Plain Text
Title : Full
Language : English
Default : No
Forced : No
Menu
00:00:00.000 : en:Act of Terrorism
00:06:20.755 : en:A Crime Investigation
00:15:32.681 : en:Claire Kachever
00:24:59.206 : en:Unique Time Constraints
00:30:20.235 : en:Snow White
00:38:37.356 : en:Who's Watching Her?
00:42:57.992 : en:That's Him
00:49:30.384 : en:Something Breached the Field
00:55:52.390 : en:Branching the Universe
00:59:57.385 : en:Out of Range
01:14:15.617 : en:Motive
01:20:37.999 : en:Four Days Ago
01:29:00.418 : en:They'd Never Believe You
01:42:49.371 : en:Change of Plans
01:54:41.416 : en:Have We Met?
01:58:06.621 : en:End Credits

〤 Скриншот 〤

© Оформление by kat222000

Создавать темы 27-Сен-2016 22:46

[Профиль]  [ЛС] 
Показать сообщения:    
Ответить на тему

Текущее время: 16-Дек 19:38

Часовой пояс: UTC + 5



Вы не можете начинать темы
Вы не можете отвечать на сообщения
Вы не можете редактировать свои сообщения
Вы не можете удалять свои сообщения
Вы не можете голосовать в опросах
Вы не можете прикреплять файлы к сообщениям
Вы не можете скачивать файлы