Люди Икс: Апокалипсис / X-Men: Apocalypse (Брайан Сингер / Bryan Singer) [2016 г., США, фантастика, боевик, приключения, BDRip 720p / 60fps] | iTunes (DUB) + Original (Eng)

Ответить на тему
 

kat222000 ®

Стаж: 6 лет 7 месяцев

Сообщений: 608

Симпатии: 1055


Люди Икс: Апокалипсис / X-Men: Apocalypse«Выживет сильнейший» Страна: США
Жанр: фантастика, боевик, приключения
Год выпуска: 2016
Продолжительность: 02:23:57
Перевод: Профессиональный (полное дублирование)
Субтитры: Русский (Forced, Full), Английский (Forced, Full)-Режиссер: Брайан Сингер / Bryan Singer-Продюсер: Саймон Кинберг, Хатч Паркер, Лорен Шулер Доннер-В ролях: Джеймс МакЭвой, Майкл Фассбендер, Дженнифер Лоуренс, Николас Холт, Оскар Айзек, Роуз Бирн, Эван Питерс, Джош Хелман, Софи Тернер, Тай Шеридан-Описание: События «Дней Минувшего Будущего» оказали колоссальное влияние на мир, где мутанты и люди борются за свое место под Солнцем. В это нелегкое время Людям Икс предстоит столкнуться со своим самым опасным противником — древним мутантом Апокалипсисом, существом, схватка с которым может стать последней не только для мутантов, но и в принципе для всего человечества. В поисках способа победы над неуязвимым и бессмертным монстром Людям Икс предстоит узнать больше о происхождении своего вида. Но Апокалипсис неимоверно силен, и вероятность победы все уменьшается, ведь он твердо убежден, что только сильнейшие имеют право на выживание…- -Возраст: зрителям, достигшим 12 лет-Рейтинг MPAA: детям до 13 лет просмотр не желателен- Качество видео: BDRip 720p | 60 fps
Формат видео: MKV
Видео кодек: AVC
Аудио кодек: AC3
Видео: 1 280x532 (2.40:1), 59.940 fps, AVC ~5 022 kbps avg, 0.098 bit/pixel
Аудио 1: 48 kHz, AC3 Dolby Digital, 3/2 (L,C,R,l,r) + LFE ch, ~384.00 kbps avg (Русский | DUB)
Аудио 2: 48 kHz, AC3 Dolby Digital, 3/2 (L,C,R,l,r) + LFE ch, ~384.00 kbps avg (English | Original)
Аудио 3: 48 kHz, AAC, 2/0 (L,R) ch, ~160.00 kbps avg (English | Descriptive)
Навигация по главам: есть-

〤 ОтчетМедиаИнфо 〤

General
Unique ID : 252609479069139290207249018312695513992 (0xBE0AD0E536D7DC7AAE4E6B8944E48388)
Format : Matroska
Format version : Version 4 / Version 2
File size : 5.05 GiB
Duration : 2h 23mn
Overall bit rate : 5 022 Kbps
Encoded date : UTC 2016-09-09 14:53:25
Writing application : mkvmerge v7.7.0 ('Six Voices') 64bit built on Feb 28 2015 23:39:33
Writing library : libebml v1.3.1 + libmatroska v1.4.2
DURATION : 02:23:57.228000000
NUMBER_OF_FRAMES : 517716
NUMBER_OF_BYTES : 4417799723
_STATISTICS_WRITING_APP : mkvmerge v7.7.0 ('Six Voices') 64bit built on Feb 28 2015 23:39:33
_STATISTICS_WRITING_DATE_UTC : 2016-09-09 14:53:25
_STATISTICS_TAGS : BPS DURATION NUMBER_OF_FRAMES NUMBER_OF_BYTES
Video
ID : 1
Format : AVC
Format/Info : Advanced Video Codec
Format profile : [email protected]
Format settings, CABAC : Yes
Format settings, ReFrames : 5 frames
Codec ID : V_MPEG4/ISO/AVC
Width : 1 280 pixels
Height : 532 pixels
Display aspect ratio : 2.40:1
Frame rate mode : Variable
Original frame rate : 59.940 fps
Color space : YUV
Chroma subsampling : 4:2:0
Bit depth : 8 bits
Scan type : Progressive
Writing library : x264 core 148 r2638 7599210
Encoding settings : cabac=1 / ref=5 / deblock=1:-3:-3 / analyse=0x3:0x113 / me=umh / subme=11 / psy=1 / psy_rd=1.00:0.00 / mixed_ref=1 / me_range=32 / chroma_me=1 / trellis=2 / 8x8dct=1 / cqm=0 / deadzone=21,11 / fast_pskip=1 / chroma_qp_offset=-2 / threads=6 / lookahead_threads=1 / sliced_threads=0 / nr=0 / decimate=1 / interlaced=0 / bluray_compat=0 / constrained_intra=0 / bframes=7 / b_pyramid=2 / b_adapt=2 / b_bias=0 / direct=1 / weightb=1 / open_gop=0 / weightp=2 / keyint=1436 / keyint_min=95 / scenecut=40 / intra_refresh=0 / rc_lookahead=40 / rc=crf / mbtree=1 / crf=15.0 / qcomp=0.60 / qpmin=0 / qpmax=69 / qpstep=4 / vbv_maxrate=62500 / vbv_bufsize=78125 / crf_max=0.0 / nal_hrd=none / filler=0 / ip_ratio=1.40 / aq=1:1.00
Language : English
Default : Yes
Forced : No
Audio #1
ID : 2
Format : AC-3
Format/Info : Audio Coding 3
Mode extension : CM (complete main)
Format settings, Endianness : Big
Codec ID : A_AC3
Duration : 2h 23mn
Bit rate mode : Constant
Bit rate : 384 Kbps
Channel(s) : 6 channels
Channel positions : Front: L C R, Side: L R, LFE
Sampling rate : 48.0 KHz
Bit depth : 16 bits
Compression mode : Lossy
Stream size : 395 MiB (8%)
Title : AC3 5.1 @ 384 kbps - DUB, iTunes
Language : Russian
Default : Yes
Forced : No
Audio #2
ID : 3
Format : AC-3
Format/Info : Audio Coding 3
Mode extension : CM (complete main)
Format settings, Endianness : Big
Codec ID : A_AC3
Duration : 2h 23mn
Bit rate mode : Constant
Bit rate : 384 Kbps
Channel(s) : 6 channels
Channel positions : Front: L C R, Side: L R, LFE
Sampling rate : 48.0 KHz
Bit depth : 16 bits
Compression mode : Lossy
Stream size : 395 MiB (8%)
Title : AC3 5.1 @ 384 kbps
Language : English
Default : No
Forced : No
Audio #3
ID : 4
Format : AAC
Format/Info : Advanced Audio Codec
Format profile : LC
Codec ID : A_AAC
Duration : 2h 23mn
Channel(s) : 2 channels
Channel positions : Front: L R
Sampling rate : 48.0 KHz
Compression mode : Lossy
Title : AAC 2.0 @ 160 kbps - Descriptive
Language : English
Default : No
Forced : No
Text #1
ID : 5
Format : UTF-8
Codec ID : S_TEXT/UTF8
Codec ID/Info : UTF-8 Plain Text
Title : Forced, iTunes
Language : Russian
Default : Yes
Forced : No
Text #2
ID : 6
Format : UTF-8
Codec ID : S_TEXT/UTF8
Codec ID/Info : UTF-8 Plain Text
Title : iTunes
Language : Russian
Default : No
Forced : No
Text #3
ID : 7
Format : UTF-8
Codec ID : S_TEXT/UTF8
Codec ID/Info : UTF-8 Plain Text
Title : Forced, iTunes
Language : English
Default : No
Forced : No
Text #4
ID : 8
Format : UTF-8
Codec ID : S_TEXT/UTF8
Codec ID/Info : UTF-8 Plain Text
Title : iTunes
Language : English
Default : No
Forced : No
Menu
00:00:00.000 : en:Chapter 01
00:08:17.747 : en:Chapter 02
00:14:12.143 : en:Chapter 03
00:18:06.043 : en:Chapter 04
00:24:54.451 : en:Chapter 05
00:30:44.300 : en:Chapter 06
00:36:34.191 : en:Chapter 07
00:40:59.039 : en:Chapter 08
00:45:55.460 : en:Chapter 09
00:49:23.251 : en:Chapter 10
00:55:21.567 : en:Chapter 11
00:59:35.779 : en:Chapter 12
01:04:42.627 : en:Chapter 13
01:12:34.807 : en:Chapter 14
01:17:31.854 : en:Chapter 15
01:22:17.472 : en:Chapter 16
01:27:44.549 : en:Chapter 17
01:34:04.762 : en:Chapter 18
01:36:45.589 : en:Chapter 19
01:39:49.856 : en:Chapter 20
01:43:33.329 : en:Chapter 21
01:49:56.337 : en:Chapter 22
01:55:07.314 : en:Chapter 23
01:57:20.613 : en:Chapter 24
02:03:49.501 : en:Chapter 25
02:07:55.663 : en:Chapter 26
02:10:58.053 : en:Chapter 27
02:14:04.989 : en:Chapter 28

〤 Скриншоты 〤

© Оформление by kat222000


Последний раз редактировалось: kat222000 (2016-09-28 20:13), всего редактировалось 1 раз

Создавать темы 27-Сен-2016 23:21

[Профиль]  [ЛС] 

Ilham

Стаж: 6 лет 9 месяцев

Сообщений: 103

Симпатии: 3

5 человек кто скачал, вернитесь на раздачу, плиз

Комментарий от kat222000


Попробую помочь!

Создавать темы 09-Окт-2016 11:49

[Профиль]  [ЛС] 
Показать сообщения:    
Ответить на тему

Текущее время: 18-Ноя 13:34

Часовой пояс: UTC + 5



Вы не можете начинать темы
Вы не можете отвечать на сообщения
Вы не можете редактировать свои сообщения
Вы не можете удалять свои сообщения
Вы не можете голосовать в опросах
Вы не можете прикреплять файлы к сообщениям
Вы не можете скачивать файлы