Гиена / Hyena (Герард Джонсон) [2014, Великобритания, Драма, криминал, HDRip] (AVO : М. Чадов)

Ответить на тему
 

bbk ®

Стаж: 6 лет 10 месяцев

Сообщений: 435

Симпатии: 479

Гиена / Hyena
Страна: Великобритания
Жанр: Драма, криминал
Год выпуска: 2014
Продолжительность: 01:52:32
Перевод: Авторский (одноголосый закадровый), М. Чадов
Cубтитры: нет
Режиссер: Герард Джонсон
В ролях: Питер Фердинандо, Стивен Грэм, Нил Мэскелл, Элиза Ласовски, МайАнна Бёринг, Ричард Дормер, Гордон Браун, Тони Питтс, Орли Шука, Джеват Келменди
Описание: Быть хорошим полицейским не означает делать все по учебнику. Но, когда преступная деятельность в Лондоне идет на пользу албанцам и туркам, как выжить «хорошему» полицейскому?
 
Внимание! Присутствует нецензурная лексика.
Качество видео: HDRip
Формат видео: AVI
Видео: XviD, 688x288, 24 fps, 793 kbps
Аудио: MP3, 2 ch, 128 kbps

MediaInfo

General
Complete name : Hyena.2014.HDRip.745MB.AVO.MegaPeer.avi
Format : AVI
Format/Info : Audio Video Interleave
File size : 746 MiB
Duration : 1 h 52 min
Overall bit rate : 926 kb/s
Video
ID : 0
Format : MPEG-4 Visual
Format profile : Advanced [email protected]
Format settings, BVOP : 1
Format settings, QPel : No
Format settings, GMC : No warppoints
Format settings, Matrix : Custom
Codec ID : XVID
Codec ID/Hint : XviD
Duration : 1 h 52 min
Bit rate : 792 kb/s
Width : 688 pixels
Height : 288 pixels
Display aspect ratio : 2.40:1
Frame rate : 24.000 FPS
Color space : YUV
Chroma subsampling : 4:2:0
Bit depth : 8 bits
Scan type : Progressive
Compression mode : Lossy
Bits/(Pixel*Frame) : 0.167
Stream size : 638 MiB (86%)
Writing library : XviD 73
Audio
ID : 1
Format : MPEG Audio
Format version : Version 1
Format profile : Layer 3
Mode : Joint stereo
Mode extension : MS Stereo
Codec ID : 55
Codec ID/Hint : MP3
Duration : 1 h 52 min
Bit rate mode : Constant
Bit rate : 128 kb/s
Channel(s) : 2 channels
Sampling rate : 48.0 kHz
Compression mode : Lossy
Stream size : 103 MiB (14%)
Alignment : Aligned on interleaves
Interleave, duration : 167 ms (4.00 video frames)
Interleave, preload duration : 216 ms
Title : AVO | М. Чадов |
Writing library : LAME3.99r
Encoding settings : -m j -V 4 -q 2 -lowpass 17 -b 128

Скриншот c названием фильма

Скриншоты

Создавать темы 29-Сен-2016 06:39

[Профиль]  [ЛС] 

Nehtez

Стаж: 1 год 9 месяцев

Сообщений: 75

Симпатии: 34

Как фильмец?
Кто скачал, отпишитесь о впечатлениях.

Создавать темы 12-Окт-2016 19:23

[Профиль]  [ЛС] 

agar

Стаж: 4 года 7 месяцев

Сообщений: 12

Симпатии: 1

фильм отличный

Создавать темы 02-Фев-2017 03:52

[Профиль]  [ЛС] 
Показать сообщения:    
Ответить на тему

Текущее время: 27-Сен 00:07

Часовой пояс: UTC + 5



Вы не можете начинать темы
Вы не можете отвечать на сообщения
Вы не можете редактировать свои сообщения
Вы не можете удалять свои сообщения
Вы не можете голосовать в опросах
Вы не можете прикреплять файлы к сообщениям
Вы не можете скачивать файлы