Жизнь Адель / La vie d'Adèle - Chapitres 1 et 2 / Blue Is the Warmest Color (Абделатиф Кешиш / Abdelatif Kechiche) [2013, Испания, Франция, Бельгия, драма, мелодрама, BDRip] DUB (лицензия BD)

Ответить на тему
 

kat222000 ®

Стаж: 6 лет 8 месяцев

Сообщений: 608

Симпатии: 1055

- Жизнь Адель / La vie d'Adèle - Chapitres 1 et 2 / Blue Is the Warmest Color«Синий - самый теплый цвет» -Страна: Испания, Франция, Бельгия
Жанр: драма, мелодрама
Год выпуска: 2013
Продолжительность: 03:00:08
Перевод: Профессиональный (дублированный) (лицензия BD)
Субтитры: нет
Навигация по главам: нет-Режиссер: Абделатиф Кешиш / Abdelatif Kechiche-В ролях: Адель Экзаркопулос, Леа Сейду, Салим Кешьюш, Орельен Рекуан, Кэтрин Сали, Бенжамин Сиксу, Мона Валравенс, Альма, Жодоровски, Жереми Лаэрт, Энн Лорье.-Описание: 17-летняя Адель мечтает о вечной любви и встречает очаровательного парня, который тут же влюбляется в неё. Но неожиданно для неё самой, Адель начинает видеть странные сны с участием загадочной девушки с синими волосами, которую случайно встретила на улице. Юная Адель начинает понимать, что её манят не просто синие волосы, её привлекает сама незнакомка.- -Возраст: зрителям, достигшим 18 лет-Рейтинг MPAA: лицам до 17 лет просмотр запрещен- -Качество видео: BDRip
Формат видео: AVI
Видео кодек: XviD
Аудио кодек: AC3
Видео: 720x304 (2.37:1), 23.976 fps, XviD build 65 ~1 340kbps avg, 0.255 bit/pixel
Аудио: 48 kHz, AC3 Dolby Digital, 3/2 (L,C,R,l,r) + LFE ch, ~384 kbps avg (Русский | DUB)-

〤 ОтчетМедиаИнфо 〤

Общее
Формат : AVI
Формат/Информация : Audio Video Interleave
Профиль формата : OpenDML
Размер файла : 2,18 Гбайт
Продолжительность : 3 ч. 0 м.
Общий поток : 1736 Кбит/сек
Название фильма : La vie d'Adele - Chapitres 1 et 2 / Blue Is the Warmest Color 2013
Режиссёр : Abdelatif Kechiche
Дата записи : 22.03.2014
Программа кодирования : VirtualDubModRus 1.5.10.2 (build 2542/release)
Библиотека кодирования : VirtualDubMod build 2542/release
Примечание : MooN_WalkeR
Видео
Идентификатор : 0
Формат : MPEG-4 Visual
Профиль формата : Advanced [email protected]
Параметр BVOP формата : 1
Параметр QPel формата : Нет
Параметр GMC формата : Без точки перехода
Параметр матрицы формата : Выборочная
Идентификатор кодека : XVID
Идентификатор кодека/Подсказка : XviD
Продолжительность : 3 ч. 0 м.
Битрейт : 1340 Кбит/сек
Ширина : 720 пикселей
Высота : 304 пикселя
Соотношение сторон : 2,35:1
Частота кадров : 23,976 кадра/сек
Цветовое пространство : YUV
Субдискретизация насыщенности : 4:2:0
Битовая глубина : 8 бит
Тип развёртки : Прогрессивная
Метод сжатия : С потерями
Бит/(Пиксели*Кадры) : 0.255
Размер потока : 1,69 Гбайт (77%)
Библиотека кодирования : XviD 65
Аудио
Идентификатор : 1
Формат : AC-3
Формат/Информация : Audio Coding 3
Расширение режима : CM (complete main)
Идентификатор кодека : 2000
Продолжительность : 3 ч. 0 м.
Вид битрейта : Постоянный
Битрейт : 384 Кбит/сек
Каналы : 6 каналов
Расположение каналов : Front: L C R, Side: L R, LFE
Частота : 48,0 КГц
Битовая глубина : 16 бит
Метод сжатия : С потерями
Размер потока : 495 Мбайт (22%)
Выравнивание : Разделение по промежуткам
Продолжительность промежутка : 42 мс. (1,00 видеокадр)
Время предзагрузки промежутка : 500 мс.
Заголовок : Dub
-

〤 Скриншоты 〤



- © Оформление by kat222000

Создавать темы 14-Фев-2016 20:49

[Профиль]  [ЛС] 

Топик был перенесен из форума Кино, Видео и ТВ (Архив) в форум Арт-хаус и авторское кино
kat222000

Создавать темы 13-Июн-2016 23:32

 

iso77

Стаж: 2 года 1 месяц

Сообщений: 2

Симпатии: 1

не советую

Создавать темы 02-Окт-2016 23:35

[Профиль]  [ЛС] 

conter

Стаж: 1 год 1 месяц

Сообщений: 17

Симпатии: 4

Раздавайте пожалуйста, очень хороший фильм

Создавать темы 04-Дек-2016 23:18

[Профиль]  [ЛС] 
Показать сообщения:    
Ответить на тему

Текущее время: 14-Дек 21:54

Часовой пояс: UTC + 5



Вы не можете начинать темы
Вы не можете отвечать на сообщения
Вы не можете редактировать свои сообщения
Вы не можете удалять свои сообщения
Вы не можете голосовать в опросах
Вы не можете прикреплять файлы к сообщениям
Вы не можете скачивать файлы