Воин ветра / Baramui Fighter/ Fighter in the Wind (Янг Йюн-Хо) [2004, Южная Корея, драма, военный, биография, история, боевые искусства, DVDRip]

Ответить на тему
 

ruhal ®

Стаж: 2 года 6 месяцев

Сообщений: 1181

Симпатии: 1836

-Воин ветра/ Baramui Fighter/ Fighter in the Wind- Информация о фильме
Название: Воин ветра
Оригинальное название: Baramui Fighter/ Fighter in the Wind
Год выхода: 2004
Жанр: драма, военный, биография, история, боевые искусства-Режиссер: Янг Йюн-Хо-В ролях: Донг-кан Янг, Ая Хираяма, Масая Като, Тхэ-у Жонг,
Ду-хон Юнг, Дэвид Джозеф Ансельмо, Майкл Фредерик Арнольд, Han-garl Lee, Сенг-мин Парк-О фильме:
История о легендарном корейце, победившем многочисленных мастеров каратэ в Японии.
Фильм рассказывает историю Цоя Пэ Дала (1922-1994), переселившегося в Японию во время Второй Мировой войны.
Под именем Мацутацу Ояма он стал основателем нового стиля в каратэ — «кёкушинкай».-Страна: Южная Корея
Продолжительность: 02:01:08
Перевод: Профессиональный (одноголосный, закадровый)-Формат: AVI
Качество: DVDRip
Видео: Video: Xvid 688x384 23.976fps 1332kbps
Звук: Dolby AC3 48000Hz 6ch 384kbps-

MI

General
Complete name : E:\Films\Voin_vetra_DVDRip.avi
Format : AVI
Format/Info : Audio Video Interleave
File size : 1.46 GiB
Duration : 2h 1mn
Overall bit rate : 1 726 Kbps
Writing application : VirtualDubMod 1.5.10.2 (build 2540/release)
Writing library : VirtualDubMod build 2540/release
Video
ID : 0
Format : MPEG-4 Visual
Format profile : Advanced [email protected]
Format settings, BVOP : 1
Format settings, QPel : No
Format settings, GMC : No warppoints
Format settings, Matrix : Custom
Codec ID : XVID
Codec ID/Hint : XviD
Duration : 2h 1mn
Bit rate : 1 333 Kbps
Width : 688 pixels
Height : 384 pixels
Display aspect ratio : 16:9
Frame rate : 23.976 fps
Color space : YUV
Chroma subsampling : 4:2:0
Bit depth : 8 bits
Scan type : Progressive
Compression mode : Lossy
Bits/(Pixel*Frame) : 0.210
Stream size : 1.13 GiB (77%)
Writing library : XviD 1.2.1 (UTC 2008-12-04)
Audio
ID : 1
Format : AC-3
Format/Info : Audio Coding 3
Mode extension : CM (complete main)
Format settings, Endianness : Big
Codec ID : 2000
Duration : 2h 1mn
Bit rate mode : Constant
Bit rate : 384 Kbps
Channel(s) : 6 channels
Channel positions : Front: L C R, Side: L R, LFE
Sampling rate : 48.0 KHz
Bit depth : 16 bits
Compression mode : Lossy
Stream size : 333 MiB (22%)
Alignment : Split accross interleaves
Interleave, duration : 42 ms (1.00 video frame)
Interleave, preload duration : 500 ms

Screenshots





Последний раз редактировалось: ruhal (2016-10-03 20:12), всего редактировалось 1 раз

Создавать темы 03-Окт-2016 20:00

[Профиль]  [ЛС] 

ruhal ®

Стаж: 2 года 6 месяцев

Сообщений: 1181

Симпатии: 1836

Специально для Zohidjon

Создавать темы 03-Окт-2016 20:02

[Профиль]  [ЛС] 

Aybek

Стаж: 5 лет 10 месяцев

Сообщений: 15

Поддержите закачку ребята! Фильм хочется посмотреть!

Создавать темы 09-Май-2017 00:06

[Профиль]  [ЛС] 
Показать сообщения:    
Ответить на тему

Текущее время: 22-Окт 11:42

Часовой пояс: UTC + 5



Вы не можете начинать темы
Вы не можете отвечать на сообщения
Вы не можете редактировать свои сообщения
Вы не можете удалять свои сообщения
Вы не можете голосовать в опросах
Вы не можете прикреплять файлы к сообщениям
Вы не можете скачивать файлы