Йоганутые / Yoga Hosers (Кевин Смит) [2016, США, Ужасы, фэнтези, триллер, комедия, WEB-DLRip] [ iTunes]

Ответить на тему
 

ScorpiuS ®

Стаж: 7 лет 1 месяц

Сообщений: 206

Симпатии: 122

Йоганутые / Yoga Hosers- Страна: США
Жанр: Ужасы, фэнтези, триллер, комедия
Слоган: «A Movie for Kids from the Director of 'Clerks' and 'Tusk.'»
Год выпуска: 2016
Продолжительность: 01:27:17-Перевод: Профессиональный (дублированный) | iTunes
Cубтитры: нет
Режиссер: Кевин Смит-В ролях: Лили-Роуз Мелоди Депп, Харли Куинн Смит, Ванесса Паради, Остин Роберт Батлер, Тайлер Пози, Джонни Депп, Джастин Лонг, Ральф Гармен, Хейли Джоэл Осмент, Дженезис Родригез-Описание: Колин Колетт и Колин МакКензи из Манитобы помешаны на йоге. В то же время они вынуждены подрабатывать после школы в небольшом магазинчике, и эту работу они терпеть не могут. Однако долго скучать школьницам не приходится: «вселенское зло», возникшее в прямом смысле слова «из-под земли», грозит им сорвать долгожданную вечеринку для старшеклассников. Тогда девушки объединяются с охотником за головами — Ги Ла Пойнтом, чтобы бороться с демонами зла с помощью всех «семи чакр и одной позы воина».- 
-Качество видео: WEB-DLRip
Формат видео: AVI-Видео: XviD, 720x304, 24 fps, 1996 kbps
Аудио: AC3, 6 ch, 384 kbps

MediaInfo

Общее
Полное имя : D:\pirog\kino\Yoga.Hosers.2016.WEB-DLRip.1.46Gb.MegaPeer.avi
Формат : AVI
Формат/Информация : Audio Video Interleave
Размер файла : 1,46 Гбайт
Продолжительность : 1 ч. 27 м.
Общий поток : 2388 Кбит/сек
Видео
Идентификатор : 0
Формат : MPEG-4 Visual
Профиль формата : Advanced [email protected]
Параметр BVOP формата : 1
Параметр QPel формата : Нет
Параметр GMC формата : Без точки перехода
Параметр матрицы формата : Выборочная
Идентификатор кодека : XVID
Идентификатор кодека/Подсказка : XviD
Продолжительность : 1 ч. 27 м.
Битрейт : 1997 Кбит/сек
Ширина : 720 пикселей
Высота : 304 пикселя
Соотношение сторон : 2,35:1
Частота кадров : 24,000 кадра/сек
Цветовое пространство : YUV
Субдискретизация насыщенности : 4:2:0
Битовая глубина : 8 бит
Тип развёртки : Прогрессивная
Метод сжатия : С потерями
Бит/(Пиксели*Кадры) : 0.380
Размер потока : 1,22 Гбайт (84%)
Библиотека кодирования : XviD 73
Аудио
Идентификатор : 1
Формат : AC-3
Формат/Информация : Audio Coding 3
Расширение режима : CM (complete main)
Параметр Endianness формата : Big
Идентификатор кодека : 2000
Продолжительность : 1 ч. 27 м.
Вид битрейта : Постоянный
Битрейт : 384 Кбит/сек
Каналы : 6 каналов
Расположение каналов : Front: L C R, Side: L R, LFE
Частота : 48,0 КГц
Частота кадров : 31,250 кадров/сек (1536 spf)
Метод сжатия : С потерями
Размер потока : 240 Мбайт (16%)
Выравнивание : Соединение по промежуткам
Продолжительность промежутка : 64 мс. (1,54 видеокадра)
Время предзагрузки промежутка : 192 мс.
Заголовок : iTunes

Скриншоты




Создавать темы 07-Окт-2016 10:11

[Профиль]  [ЛС] 

killer_said

Стаж: 6 лет 8 месяцев

Сообщений: 183

Симпатии: 54

и почему я такие го.но фильмы качаю :(

Создавать темы 25-Дек-2016 11:52

[Профиль]  [ЛС] 
Показать сообщения:    
Ответить на тему

Текущее время: 24-Окт 16:17

Часовой пояс: UTC + 5



Вы не можете начинать темы
Вы не можете отвечать на сообщения
Вы не можете редактировать свои сообщения
Вы не можете удалять свои сообщения
Вы не можете голосовать в опросах
Вы не можете прикреплять файлы к сообщениям
Вы не можете скачивать файлы