Повесть о любви и тьме / A Tale of Love and Darkness (Натали Портман) [2015, Израиль, США, Драма, биография, WEBRip] (MVO : GreenРай Studio)

Ответить на тему
 

bbk ®

Стаж: 7 лет

Сообщений: 435

Симпатии: 479

Повесть о любви и тьме / A Tale of Love and Darkness
Страна: Израиль, США
Жанр: Драма, биография
Год выпуска: 2015
Продолжительность: 01:34:07
Перевод: Любительский (многоголосый закадровый), GreenРай Studio
Cубтитры: Иврит
Режиссер: Натали Портман
В ролях: Натали Портман, Шира Хаас, Охад Кноллер, Макрам Кхури, Amir Tessler, Джилад Кахана, Нета Рискин, Мони Мошонов, Ротем Кейнан, Генри Давид, Томер Капон, Дина Дорон, Asia Naifeld, Александр Пелег, Владимир Фридман
Описание: 40-е годы прошлого столетия. Маленький Амос Оз и его родители бегут из Европы на родину – в Иерусалим. Начинается Вторая Мировая война, и Гитлер отдает приказ о полном уничтожении евреев. Детство и юность будущего писателя проходят в бедности. Уже в 15 лет он начинает работать, затем служит в армии, воюет на сирийской границе. После наступления мира остается работать в сельскохозяйственной коммуне, занимается растениеводством и животноводством. Но мало-помалу в нем проявляются задатки отца – библиотекаря и писателя. Амос начинает писать для журналов, но чувствует, что ему не хватает образования. Он получает его сначала в Еврейском университете, а потом и в Оксфорде. Жизненные испытания не ожесточают Оза. Он по-прежнему любит жизнь и постоянно вспоминает свои счастливые детские годы.
 
Имеется реклама от спонсора показа!
Качество видео: WEBRip
Формат видео: AVI
Видео: XviD, 921 Кбит/с, 720x304
Аудио: Русский (AC3, 2 ch, 128 Кбит/с)

MediaInfo

General
Complete name : D:\Downloads\A.Tale.of.Love.and.Darkness.2015.P.WEBRip.700MB. GreenРай Studio.avi
Format : AVI
Format/Info : Audio Video Interleave
File size : 720 MiB
Duration : 1 h 34 min
Overall bit rate : 1 059 kb/s
Writing application : VirtualDubMod 1.5.10.2 (build 2540/release)
Writing library : VirtualDubMod build 2540/release
Video
ID : 0
Format : MPEG-4 Visual
Format profile : Advanced [email protected]
Format settings, BVOP : 2
Format settings, QPel : No
Format settings, GMC : No warppoints
Format settings, Matrix : Default (MPEG)
Codec ID : XVID
Codec ID/Hint : XviD
Duration : 1 h 34 min
Bit rate : 921 kb/s
Width : 720 pixels
Height : 304 pixels
Display aspect ratio : 2.35:1
Frame rate : 25.000 FPS
Color space : YUV
Chroma subsampling : 4:2:0
Bit depth : 8 bits
Scan type : Progressive
Compression mode : Lossy
Bits/(Pixel*Frame) : 0.168
Stream size : 626 MiB (87%)
Writing library : XviD 1.2.1 (UTC 2008-12-04)
Audio
ID : 1
Format : AC-3
Format/Info : Audio Coding 3
Mode extension : CM (complete main)
Format settings, Endianness : Big
Codec ID : 2000
Duration : 1 h 34 min
Bit rate mode : Constant
Bit rate : 128 kb/s
Channel(s) : 2 channels
Channel positions : Front: L R
Sampling rate : 48.0 kHz
Frame rate : 31.250 FPS (1536 spf)
Compression mode : Lossy
Stream size : 87.0 MiB (12%)
Alignment : Split accross interleaves
Interleave, duration : 40 ms (1.00 video frame)
Interleave, preload duration : 500 ms

Скриншот c названием фильма

Скриншоты



Создавать темы 11-Окт-2016 08:57

[Профиль]  [ЛС] 
Показать сообщения:    
Ответить на тему

Текущее время: 12-Дек 23:10

Часовой пояс: UTC + 5



Вы не можете начинать темы
Вы не можете отвечать на сообщения
Вы не можете редактировать свои сообщения
Вы не можете удалять свои сообщения
Вы не можете голосовать в опросах
Вы не можете прикреплять файлы к сообщениям
Вы не можете скачивать файлы