Жёлтые цветы на зелёной траве / Toi thay hoa vang tren co xanh (Виктор Ву) [2015, Вьетнам, драма, семейный, HDTVRip] (VO : visanti-vasaer)

Ответить на тему
 

bbk ®

Стаж: 7 лет

Сообщений: 435

Симпатии: 479

Жёлтые цветы на зелёной траве / Toi thay hoa vang tren co xanh
Страна: Вьетнам / Galaxy Studio
Жанр: драма, семейный
Год выпуска: 2015
Продолжительность: 01:38:03
Перевод: Одноголосый закадровый (visanti-vasaer)
Cубтитры: Russian, English (внешние)
Режиссер: Виктор Ву
В ролях: Жайви Mай Хиеп, Мий Тхань, Ханг Чонг,Тхинь Винь…
Описание: Вьетнамская деревушка 1980-е. Отношение двух братьев перерастают от любви к ненависти, когда оба влюбляются в соседскую девочку.
 
Качество видео: HDTVRip
Формат видео: AVI
Видео: XviD, 720x304(2.40:1), 25.000 FPS, 1722 Kb/s
Аудио: Russian / Vietnamese: AC3, 192 Kb/s (2 ch)

MediaInfo

General
Complete name : D:\Downloads\Toi thay hoa vang tren co xanh (2015) HDTVRip\Toi thay hoa vang tren co xanh (2015) HDTVRip.avi
Format : AVI
Format/Info : Audio Video Interleave
Format profile : OpenDML
File size : 1.46 GiB
Duration : 1 h 38 min
Overall bit rate : 2 125 kb/s
Writing application : XviD4PSP 6.0 / 54.29.105
Video
ID : 0
Format : xvid
Codec ID : xvid
Duration : 1 h 38 min
Bit rate : 1 722 kb/s
Width : 720 pixels
Height : 304 pixels
Display aspect ratio : 2.40:1
Frame rate : 25.000 FPS
Scan type : Progressive
Bits/(Pixel*Frame) : 0.315
Stream size : 1.18 GiB (81%)
Audio #1
ID : 1
Format : AC-3
Format/Info : Audio Coding 3
Mode extension : CM (complete main)
Format settings, Endianness : Big
Codec ID : 2000
Duration : 1 h 38 min
Bit rate mode : Constant
Bit rate : 192 kb/s
Channel(s) : 2 channels
Channel positions : Front: L R
Sampling rate : 44.1 kHz
Frame rate : 28.711 FPS (1536 spf)
Bit depth : 16 bits
Compression mode : Lossy
Stream size : 135 MiB (9%)
Alignment : Aligned on interleaves
Interleave, duration : 35 ms (0.87 video frame)
Audio #2
ID : 2
Format : AC-3
Format/Info : Audio Coding 3
Mode extension : CM (complete main)
Format settings, Endianness : Big
Codec ID : 2000
Duration : 1 h 38 min
Bit rate mode : Constant
Bit rate : 192 kb/s
Channel(s) : 2 channels
Channel positions : Front: L R
Sampling rate : 48.0 kHz
Frame rate : 31.250 FPS (1536 spf)
Bit depth : 16 bits
Compression mode : Lossy
Stream size : 135 MiB (9%)
Alignment : Aligned on interleaves
Interleave, duration : 32 ms (0.80 video frame)

Скриншот c названием фильма

Скриншоты



Создавать темы 26-Дек-2016 04:20

[Профиль]  [ЛС] 
Показать сообщения:    
Ответить на тему

Текущее время: 12-Дек 09:40

Часовой пояс: UTC + 5



Вы не можете начинать темы
Вы не можете отвечать на сообщения
Вы не можете редактировать свои сообщения
Вы не можете удалять свои сообщения
Вы не можете голосовать в опросах
Вы не можете прикреплять файлы к сообщениям
Вы не можете скачивать файлы