Мультеррор 3 / Terror Toons 3 (Джо Кастро) [2015, ужасы, фэнтези, триллер, комедия, WEB-DLRip] (DVO : [den904 & DeadSno])

Ответить на тему
 

Admiral ®

Стаж: 3 года 11 месяцев

Сообщений: 312

Симпатии: 347

Мультеррор 3 / Terror Toons 3- Год выпуска: 2015
Страна: США
Жанр: ужасы, фэнтези, триллер, комедия
Продолжительность: 01:11:00
Перевод: Любительский (двухголосый закадровый) [den904 & DeadSno]
Cубтитры: нет-Режиссер: Джо Кастро
В ролях: Роберт Райн, Amylou, Николас Хернандез, Скотт Бэрроус, Ian Blom, Эмили Бут, Лиззи Борден, David Scott Bryant, Уильям Батлер, Энджел Карденас-Описание: Непредсказуемая история Синди и её младшей сестры Кэнди, которые вынуждены противостоять злодеям из тёмного и жестокого мира мультизмерения. Заручившись поддержкой друзей, героини ведут борьбу с устрашающим Доктором Карнагом и его компаньоном Максом Ассасином.-Качество видео: WEB-DLRip
Формат видео: AVI
Видео: XviD, 2359 kb/s, 704x400
Аудио: AC3, 384 kb/s (2 ch)-Скриншоты:
-

MediaInfo

General
Complete name                  : Terror.Toons.3.2015.L2.WEB-DLRip.avi
Format                         : AVI
Format/Info                    : Audio Video Interleave
File size                      : 1.36 GiB
Duration                       : 1h 10mn
Overall bit rate               : 2 752 Kbps
Writing application            : VirtualDubMod 1.5.10.3 | www.virtualdub-fr.org || (build 2550/release)
Writing library                : VirtualDubMod build 2550/release
Video
ID                             : 0
Format                         : MPEG-4 Visual
Format profile                 : Advanced [email protected]
Format settings, BVOP          : 1
Format settings, QPel          : No
Format settings, GMC           : No warppoints
Format settings, Matrix        : Custom
Codec ID                       : XVID
Codec ID/Hint                  : XviD
Duration                       : 1h 10mn
Bit rate                       : 2 359 Kbps
Width                          : 720 pixels
Height                         : 400 pixels
Display aspect ratio           : 16:9
Frame rate                     : 23.976 (23976/1000) fps
Color space                    : YUV
Chroma subsampling             : 4:2:0
Bit depth                      : 8 bits
Scan type                      : Progressive
Compression mode               : Lossy
Bits/(Pixel*Frame)             : 0.342
Stream size                    : 1.17 GiB (86%)
Writing library                : XviD 73
Audio
ID                             : 1
Format                         : AC-3
Format/Info                    : Audio Coding 3
Mode extension                 : CM (complete main)
Format settings, Endianness    : Big
Codec ID                       : 2000
Duration                       : 1h 10mn
Bit rate mode                  : Constant
Bit rate                       : 384 Kbps
Channel(s)                     : 2 channels
Channel positions              : Front: L R
Sampling rate                  : 48.0 KHz
Frame rate                     : 31.250 fps (1536 spf)
Compression mode               : Lossy
Stream size                    : 195 MiB (14%)
Alignment                      : Split accross interleaves
Interleave, duration           : 42 ms (1.00 video frame)
Interleave, preload duration   : 500 ms

Создавать темы 27-Дек-2016 11:28

[Профиль]  [ЛС] 
Показать сообщения:    
Ответить на тему

Текущее время: 15-Дек 17:22

Часовой пояс: UTC + 5



Вы не можете начинать темы
Вы не можете отвечать на сообщения
Вы не можете редактировать свои сообщения
Вы не можете удалять свои сообщения
Вы не можете голосовать в опросах
Вы не можете прикреплять файлы к сообщениям
Вы не можете скачивать файлы