Бруклин / Brooklyn (Джон Краули) [2015, Ирландия, Великобритания, Канада, драма, мелодрама, BDRip] [Лицензия]

Ответить на тему
 

ruhal ®

Стаж: 2 года 7 месяцев

Сообщений: 1181

Симпатии: 1836

-Бруклин / Brooklyn-
Страна: Ирландия, Великобритания, Канада
Жанр: драма, мелодрама
Год выпуска: 2015
Продолжительность: 01:51:58-Перевод: Профессиональный (дублированный) [Лицензия]
Cубтитры: нет-Режиссер: Джон Краули-В ролях: Сирша Ронан (Eilis), Эмори Коэн (Tony), Донал Глисон (Jim Farrell), Джим Бродбент (Father Flood),
Джули Уолтерс (Mrs. Keogh), Брид Бреннан (Miss Kelly), Джейн Бреннан (Mary Lacey), Фиона Глэскотт (Rose),
Джессика Паре (Miss Fortini), Эйлин О’Хиггинс (Nancy), Дженн Мюррэй (Dolores), Эмили Бетт Рикардс (Patty)-Описание: История Эллис Лэйси, которая неохотно покидает свою родную ирландскую деревню и отправляется
на поиски работы в Америку. В итоге она поселяется в Бруклине, постепенно излечивается от ностальгии и начинает
наслаждаться воздухом свободы. Ко всему прочему Эллис влюбляется, но трагические новости с родины заставляют ее
вернуться в Ирландию, где она встречает другого мужчину и в результате вынуждена делать нелегкий выбор.-Качество видео: BDRip
Формат видео: AVI
Видео: Xvid 704x384 23.976fps 1409kbps
Аудио: Dolby AC3 48000Hz 6ch 448kbps
-

MediaInfo

General
Complete name : E:\Films\Bruklin.2015.P.BDRip.avi
Format : AVI
Format/Info : Audio Video Interleave
File size : 1.46 GiB
Duration : 1h 51mn
Overall bit rate : 1 867 Kbps
Movie name : Bruklin.2015.P.BDRip.1.46Gb_by_Twi7ter
Director : Twi7ter
Genre : Drama/Romance
Writing application : VirtualDubMod 1.5.10.3 (build 2550/release)
Original source form/Name : Movie
Video
ID : 0
Format : MPEG-4 Visual
Format profile : Advanced [email protected]
Format settings, BVOP : 2
Format settings, QPel : No
Format settings, GMC : No warppoints
Format settings, Matrix : Custom
Codec ID : XVID
Codec ID/Hint : XviD
Duration : 1h 51mn
Bit rate : 1 410 Kbps
Width : 704 pixels
Height : 384 pixels
Display aspect ratio : 1.85:1
Frame rate : 23.976 fps
Color space : YUV
Chroma subsampling : 4:2:0
Bit depth : 8 bits
Scan type : Progressive
Compression mode : Lossy
Bits/(Pixel*Frame) : 0.218
Stream size : 1.10 GiB (76%)
Writing library : XviD 73
Audio
ID : 1
Format : AC-3
Format/Info : Audio Coding 3
Mode extension : CM (complete main)
Format settings, Endianness : Big
Codec ID : 2000
Duration : 1h 51mn
Bit rate mode : Constant
Bit rate : 448 Kbps
Channel(s) : 6 channels
Channel positions : Front: L C R, Side: L R, LFE
Sampling rate : 48.0 KHz
Bit depth : 16 bits
Compression mode : Lossy
Stream size : 359 MiB (24%)
Alignment : Split accross interleaves
Interleave, duration : 42 ms (1.00 video frame)
Interleave, preload duration : 500 ms

Скриншот c названием фильма

Скриншоты



Создавать темы 19-Янв-2017 09:04

[Профиль]  [ЛС] 

ruhal ®

Стаж: 2 года 7 месяцев

Сообщений: 1181

Симпатии: 1836

Специально для Powered by GMC

Создавать темы 19-Янв-2017 09:06

[Профиль]  [ЛС] 

Powered by GMC

Стаж: 2 года 1 месяц

Сообщений: 202

Симпатии: 31

989183Специально для Powered by GMC
Огромгое человечское Спасибо

Создавать темы 19-Янв-2017 13:39

[Профиль]  [ЛС] 

Powered by GMC

Стаж: 2 года 1 месяц

Сообщений: 202

Симпатии: 31

ruhal, я к вам не коннектилься! какой у вас диапазон? у меня 10.9. или фильтр нужно ? новый? я вот у соседях скачал новый фильтр! вот в нем 10.9 разрешен! может у вас не такой фильтр??не понемаю раньше я к вам коннектился много раз! у вас должно быт ИсТв? 31.135?

Создавать темы 19-Янв-2017 16:00

[Профиль]  [ЛС] 

Powered by GMC

Стаж: 2 года 1 месяц

Сообщений: 202

Симпатии: 31

если нужно список фильтра могу показать!

Создавать темы 19-Янв-2017 16:01

[Профиль]  [ЛС] 

Powered by GMC

Стаж: 2 года 1 месяц

Сообщений: 202

Симпатии: 31

ruhal, Все дорогой Модератор! я разобрался! дело в том что у моего айпи фильтра нет ваш 95.46.х.х! я обновил свой фильтр! вот коннектился! перекодировал айпи свой!

Комментарий от ruhal


ay

Создавать темы 19-Янв-2017 18:35

[Профиль]  [ЛС] 

Powered by GMC

Стаж: 2 года 1 месяц

Сообщений: 202

Симпатии: 31

Вот товариш Trastik скачал и уходил. Не раздавь другим!

Комментарий от ruhal


редиска

Создавать темы 19-Янв-2017 21:08

[Профиль]  [ЛС] 

Powered by GMC

Стаж: 2 года 1 месяц

Сообщений: 202

Симпатии: 31

На этот месяц тариф сменил на ниже! потому отдача мало! терпение вам! максимум 64 кб/с отдача!

Создавать темы 11-Фев-2017 11:34

[Профиль]  [ЛС] 
Показать сообщения:    
Ответить на тему

Текущее время: 25-Ноя 07:11

Часовой пояс: UTC + 5



Вы не можете начинать темы
Вы не можете отвечать на сообщения
Вы не можете редактировать свои сообщения
Вы не можете удалять свои сообщения
Вы не можете голосовать в опросах
Вы не можете прикреплять файлы к сообщениям
Вы не можете скачивать файлы