BMW напрокат / В прокат с водителем / The Hire / Сезон: 8 / Серии: 8 из 8 (Джон Фрнкенхаймер, Энг Ли, Вонг Кар-Вай, Гай Ричи, Алехандро Гонсалес Иньярриту, Джон Ву) [2002, Короткометражный, боевик, триллер, комедия, драма, DVDRip] (VO : NicKeLas) (ru

Ответить на тему
 

Nehtez ®

Стаж: 1 год 9 месяцев

Сообщений: 75

Симпатии: 34

BMW напрокат / В прокат с водителем / The Hire
Год выпуска: 2002
Страна: США
Жанр: Короткометражный, боевик, триллер, комедия, драма
Продолжительность: ~7-8 мин каждая серия
Перевод: Любительский одноголосый закадровый (автор) Доп. инфо о переводе NicKeLas
Русские субтитры: есть
Режиссёр: Джон Фрнкенхаймер, Энг Ли, Вонг Кар-Вай, Гай Ричи, Алехандро Гонсалес Иньярриту, Джон Ву
В ролях: Клайв Оуэн, Томас Милиан, Мэйсон С. Ли, Микки Рурк, Адриана Лима, Форест Уитакер, Мадонна, Стеллан Скарсгард, Лоис Смит, Мори Чайкин, Кэтрин Моррис, Дон Чидл, Рэй Лиотта, Гэри Олдман, Джеймс Браун, Мэрилин Мэнсон, Дэнни Трехо
Описание: 8 короткометражных фильмов, снятых при участии известных кинорежиссёров и актёров на заказ производителей BMW для рекламы их продукции. Главными требованиями при съёмках было: чтобы всё было снято по лучшим голливудским стандартам; чтобы фильмы не были похожими на обычную рекламу. Таким образом, имеем 8 отличных независимых друг от друга фильмов, объединяют их лишь главный герой - водитель в исполнении Клайва Оуэна, и его обязательный атрибут: автомобиль марки BMW. Не имеет значения, в каком порядке Вы будете смотреть фильмы. Но стоит учесть, что каждый из них по-своему оригинален. Среди них есть напряжённые боевики, забавные комедии, мелодичные или же жёсткие жизненные драмы. Описание сюжета каждого фильма приводить не буду, фильмы короткие, а пересказать сюжет, не испортив интригу, мне в данном случае кажется весьма сложным.
Доп. информация: Полный список режиссёров: Джон Фрнкенхаймер, Энг Ли, Вонг Кар-Вай, Гай Ричи, Алехандро Гонсалес Иньярриту, Джон Ву, Джо Карнахан, Тони Скотт
Качество: DVDRip
Формат: AVI
Видео кодек: DivX
Аудио кодек: MP3
Видео: DivX 5 624x284 (16384:7457) 23.976fps 1166kbps
Аудио: MP3 44100Hz stereo 256kbps
Аудио 2: MP3 48000Hz stereo 64kbps
Субтитры: присутствуют для всех фильмов

MediaInfo

General
Complete name : D:\v\hire\1.1 Засада (Ambush).avi
Format : AVI
Format/Info : Audio Video Interleave
File size : 82.4 MiB
Duration : 7 min 41 s
Overall bit rate : 1 497 kb/s
Writing application : VirtualDubMod 1.5.10.2 (build 2540/release)
Writing library : VirtualDubMod build 2540/release
Video
ID : 0
Format : MPEG-4 Visual
Format profile : [email protected]
Format settings, BVOP : No
Format settings, QPel : No
Format settings, GMC : No warppoints
Format settings, Matrix : Default (H.263)
Codec ID : DX50
Codec ID/Hint : DivX 5
Duration : 7 min 41 s
Bit rate : 1 166 kb/s
Width : 624 pixels
Height : 284 pixels
Display aspect ratio : 2.2:1
Frame rate : 23.976 FPS
Color space : YUV
Chroma subsampling : 4:2:0
Bit depth : 8 bits
Scan type : Progressive
Compression mode : Lossy
Bits/(Pixel*Frame) : 0.274
Stream size : 64.2 MiB (78%)
Writing library : Lavc52.30.2
Audio #1
ID : 1
Format : MPEG Audio
Format version : Version 1
Format profile : Layer 3
Codec ID : 55
Codec ID/Hint : MP3
Duration : 7 min 41 s
Bit rate mode : Constant
Bit rate : 256 kb/s
Channel(s) : 2 channels
Sampling rate : 44.1 kHz
Compression mode : Lossy
Stream size : 14.1 MiB (17%)
Alignment : Split accross interleaves
Interleave, duration : 42 ms (1.00 video frame)
Interleave, preload duration : 500 ms
Audio #2
ID : 2
Format : MPEG Audio
Format version : Version 1
Format profile : Layer 3
Mode : Joint stereo
Codec ID : 55
Codec ID/Hint : MP3
Duration : 7 min 40 s
Bit rate mode : Constant
Bit rate : 64.0 kb/s
Channel(s) : 2 channels
Sampling rate : 48.0 kHz
Compression mode : Lossy
Stream size : 3.52 MiB (4%)
Alignment : Aligned on interleaves
Interleave, duration : 144 ms (3.46 video frames)
Interleave, preload duration : 576 ms

Скриншоты



Последний раз редактировалось: Nehtez (2017-02-21 22:35), всего редактировалось 2 раз(а)

Создавать темы 11-Фев-2017 20:19

[Профиль]  [ЛС] 

Nehtez ®

Стаж: 1 год 9 месяцев

Сообщений: 75

Симпатии: 34

Модератор, не знаю в какую тему разместить эту раздачу. Определи пожалуйста. Если что нуно добавить\подправить - сделаю.

Создавать темы 11-Фев-2017 20:20

[Профиль]  [ЛС] 
Показать сообщения:    
Ответить на тему

Текущее время: 22-Сен 02:23

Часовой пояс: UTC + 5



Вы не можете начинать темы
Вы не можете отвечать на сообщения
Вы не можете редактировать свои сообщения
Вы не можете удалять свои сообщения
Вы не можете голосовать в опросах
Вы не можете прикреплять файлы к сообщениям
Вы не можете скачивать файлы