Ева за бортом / Eva über Bord (Петер Герсина) [2017, Германия, Комедия, приключения, SATRip] (VO : Любительский одноголосый Павел Морозов)

Ответить на тему
 

Adolat ®

Стаж: 5 лет 10 месяцев

Сообщений: 6

Симпатии: 2

Ева за бортом / Eva über Bord
Страна: Германия
Жанр: Комедия, приключения
Год выпуска: 2017
Продолжительность: 01:42:02
Перевод: Одноголосый закадровый Доп. инфо о переводе Любительский одноголосый Павел Морозов
Cубтитры: нет
Режиссер: Петер Герсина
В ролях: Юлия Хартманн, Стефан Лука, Ампорн Панкраток, Петер Бенедикт, Чарли Рудпоканон, Нильс-Бруно Шмидт
Описание: Начинающая журналистка Ева Казински получает от своей газеты первое важное задание - написать путевой репортаж о рейсе немецкого контейнеровоза "Либерти" из Банкгока в Гамбург. Но уже через пару дней после захвата судна малайскими пиратами приятное морское путешествие превратилось для неё в настоящий кошмар...
Качество видео: SATRip
Формат видео: AVI
Видео: XviD, 1723 Кбит/с, 720x400
Аудио: AC3, 2 ch, 192 Кбит/с
Формат субтитров: hardsub (неотключаемые)
Доп. информация о субтитрах: нет

MediaInfo

General
Complete name : D:\kino\2017\Eva za bortom 2017 SATRip.avi
Format : AVI
Format/Info : Audio Video Interleave
File size : 1.37 GiB
Duration : 1h 42mn
Overall bit rate : 1 925 Kbps
Writing application : VirtualDubMod 1.5.10.3 | www.virtualdub-fr.org || (build 2550/release)
Writing library : VirtualDubMod build 2550/release
Copyright : ExKinoRay
Video
ID : 0
Format : MPEG-4 Visual
Format profile : Advanced [email protected]
Format settings, BVOP : 1
Format settings, QPel : No
Format settings, GMC : No warppoints
Format settings, Matrix : Custom
Codec ID : XVID
Codec ID/Hint : XviD
Duration : 1h 42mn
Bit rate : 1 723 Kbps
Width : 720 pixels
Height : 400 pixels
Display aspect ratio : 16:9
Frame rate : 25.000 fps
Color space : YUV
Chroma subsampling : 4:2:0
Bit depth : 8 bits
Scan type : Progressive
Compression mode : Lossy
Bits/(Pixel*Frame) : 0.239
Stream size : 1.23 GiB (90%)
Writing library : XviD 73
Audio
ID : 1
Format : AC-3
Format/Info : Audio Coding 3
Mode extension : CM (complete main)
Format settings, Endianness : Big
Codec ID : 2000
Duration : 1h 42mn
Bit rate mode : Constant
Bit rate : 192 Kbps
Channel(s) : 2 channels
Channel positions : Front: L R
Sampling rate : 48.0 KHz
Bit depth : 16 bits
Compression mode : Lossy
Stream size : 140 MiB (10%)
Alignment : Split accross interleaves
Interleave, duration : 40 ms (1.00 video frame)
Interleave, preload duratio : 500 ms
Title : VO (PashaUp)

Скриншоты




Создавать темы 17-Фев-2017 23:02

[Профиль]  [ЛС] 

Топик был перенесен из форума Фильмы за 2017 в форум CamRip, DVDScr и т.п.
ruhal

Создавать темы 18-Фев-2017 05:57

 
Показать сообщения:    
Ответить на тему

Текущее время: 14-Дек 09:34

Часовой пояс: UTC + 5



Вы не можете начинать темы
Вы не можете отвечать на сообщения
Вы не можете редактировать свои сообщения
Вы не можете удалять свои сообщения
Вы не можете голосовать в опросах
Вы не можете прикреплять файлы к сообщениям
Вы не можете скачивать файлы