Детектив К: тайна затерянного острова / Joseon myungtamjung: nobui ddal (Ким Сок-юн) [2015, Южная Корея, комедия, приключения, HDRip] (DVO : den904 & DeadSn)

Ответить на тему
 

mr554446 ®

Стаж: 10 месяцев 24 дня

Сообщений: 10

Симпатии: 4

Детектив К: тайна затерянного острова / Joseon myungtamjung: nobui ddal
Страна: Южная Корея
Жанр: комедия, приключения
Год выпуска: 2015
Продолжительность: 02:05:15
Перевод: Любительский (двухголосый закадровый) Доп. инфо о переводе den904 & DeadSn
Cубтитры: нет
Режиссер: Ким Сок-юн
В ролях: Мён Мин Ким, Ён Хи Ли, Даль Су О, Кван У Чо, Вон Чжун Чон
Описание: 1795 год, девятнадцатый год правления короля Чончжо. В Чосоне появляется большое количество поддельных серебряных монет, что создаёт угрозу для экономики страны. Детектив Ким Мин возглавляет группу по раскрытию схемы фальшивомонетчиков. В ходе расследования он вместе со своим закадычным другом и соратником Сок Пхилем выходят на след преступников, ведущий в небольшую сельскую деревеньку, куда они и пробираются под прикрытием. В деревне детективы встречают девушку по имени Да Хэ, которая просит их помочь в поисках её пропавшей сестры. Вскоре Да Хэ тоже исчезает, а на побережье начинает выбрасывать обесцвеченные и посиневшие трупы деревенских девушек. Детектив К выясняет, что эти смерти имеют отношение к производству фальшивых серебряных монет.
Качество видео: HDRip
Формат видео: AVI
Видео: xvid, 720*304, Display aspect ratio : 2.35:1, 23.976 fps, 1 908 Kbps
Аудио: AC-3, 48.0 KHz, 192 Kbps,2 channels

MediaInfo

Format : AVI
Format/Info : Audio Video Interleave
Format profile : OpenDML
File size : 2.02 GiB
Duration : 2h 5mn
Overall bit rate : 2 308 Kbps
Movie name : Rip by basma4i
Writing application : XviD4PSP 6.0 / 54.29.105
Video
ID : 0
Format : xvid
Codec ID : xvid
Duration : 2h 5mn
Bit rate : 1 908 Kbps
Width : 720 pixels
Height : 304 pixels
Display aspect ratio : 2.35:1
Frame rate : 23.976 fps
Bits/(Pixel*Frame) : 0.364
Stream size : 1.67 GiB (83%)
Audio #1
ID : 1
Format : AC-3
Format/Info : Audio Coding 3
Mode extension : CM (complete main)
Format settings, Endianness : Big
Codec ID : 2000
Duration : 2h 5mn
Bit rate mode : Constant
Bit rate : 192 Kbps
Channel(s) : 2 channels
Channel positions : Front: L R
Sampling rate : 48.0 KHz
Frame rate : 31.250 fps (1536 spf)
Bit depth : 16 bits
Compression mode : Lossy
Stream size : 172 MiB (8%)
Alignment : Aligned on interleaves
Interleave, duration : 32 ms (0.77 video frame)
Title : den904 & DeadSno
Audio #2
ID : 2
Format : AC-3
Format/Info : Audio Coding 3
Mode extension : CM (complete main)
Format settings, Endianness : Big
Codec ID : 2000
Duration : 2h 5mn
Bit rate mode : Constant
Bit rate : 192 Kbps
Channel(s) : 2 channels
Channel positions : Front: L R
Sampling rate : 44.1 KHz
Frame rate : 28.711 fps (1536 spf)
Bit depth : 16 bits
Compression mode : Lossy
Stream size : 172 MiB (8%)
Alignment : Aligned on interleaves
Interleave, duration : 35 ms (0.84 video frame)

Скриншоты



Создавать темы 24-Фев-2017 01:50

[Профиль]  [ЛС] 

djek

Стаж: 5 лет 11 месяцев

Сообщений: 90

Симпатии: 4

раздать хотите ?

Создавать темы 26-Фев-2017 21:08

[Профиль]  [ЛС] 
Показать сообщения:    
Ответить на тему

Текущее время: 11-Дек 23:57

Часовой пояс: UTC + 5



Вы не можете начинать темы
Вы не можете отвечать на сообщения
Вы не можете редактировать свои сообщения
Вы не можете удалять свои сообщения
Вы не можете голосовать в опросах
Вы не можете прикреплять файлы к сообщениям
Вы не можете скачивать файлы