Воспитательница / Воспитатель / Обожжённые колени / La Tutora / The Tutor / Burnt Knees (Иван Ноэль / Iván Noel) [2016, Аргентина, Драма, мистика, детектив, SATRip] (VO : [viktor_2838])

Ответить на тему
 

wills ®

Стаж: 10 месяцев 9 дней

Сообщений: 2

Воспитательница / Воспитатель / Обожжённые колени / La Tutora / The Tutor / Burnt Knees
Страна: Аргентина
Жанр: Драма, мистика, детектив
Год выпуска: 2016
Продолжительность: 01:54:28
Перевод: Одноголосый закадровый Доп. инфо о переводе [viktor_2838]
Cубтитры: нет
Режиссер: Иван Ноэль / Iván Noel
В ролях: Валентино Винко, Ромина Пинто, Кристина Мареска, Малена Алонсо, Хулио Мендес, и др.
Описание: Мона получает свою первую работу гувернантки для двух детей-сирот, проживающих в старом заброшенном доме в деревне. Фанатичное стремление перевоспитания этих почти одичавших детей переходит в навязчивую идею и не позволяет женщине заметить, что у подопечных на неё имеются другие планы...
Качество видео: SATRip
Формат видео: AVI
Видео: XviD 67 MPEG-4, 688x288 (2.40:1) 23.976 fps, ~777 kbps avg, 0.164 bit/pixel
Аудио: MP-3 Joint stereo, CBR 128 kbps 2 ch, 48.0 KHz

MediaInfo

Общее
Полное имя : La_Tutora_2016.avi
Формат : AVI
Формат/Информация : Audio Video Interleave
Размер файла : 749 Мбайт
Продолжительность : 1 ч. 54 м.
Общий поток : 915 Кбит/сек
Название фильма : La_Tutora_2016
Режиссёр : OGORODNIKOFFF
Жанр : Драма, мистика, детектив
Программа кодирования : VirtualDubModRus 1.5.10.2 (build 2542/release)
Формат оригинала/Имя : Фильмы 2016
Правообладатель : http://rutracker.org/forum/profile.php?mode=viewprofile&u=38116300
Видео
Идентификатор : 0
Формат : MPEG-4 Visual
Профиль формата : Advanced [email protected]
Параметр BVOP формата : 2
Параметр QPel формата : Нет
Параметр GMC формата : Без точки перехода
Параметр матрицы формата : Выборочная
Идентификатор кодека : DX50
Идентификатор кодека/Подсказка : DivX 5
Продолжительность : 1 ч. 54 м.
Битрейт : 777 Кбит/сек
Ширина : 688 пикселей
Высота : 288 пикселей
Соотношение сторон : 2,40:1
Частота кадров : 23,976 кадра/сек
Цветовое пространство : YUV
Субдискретизация насыщенности : 4:2:0
Битовая глубина : 8 бит
Тип развёртки : Прогрессивная
Метод сжатия : С потерями
Бит/(Пиксели*Кадры) : 0.164
Размер потока : 636 Мбайт (85%)
Библиотека кодирования : XviD 67
Аудио
Идентификатор : 1
Формат : MPEG Audio
Версия формата : Version 1
Профиль формата : Layer 3
Режим : Joint stereo
Расширение режима : MS Stereo
Идентификатор кодека : 55
Идентификатор кодека/Подсказка : MP3
Продолжительность : 1 ч. 54 м.
Вид битрейта : Постоянный
Битрейт : 128 Кбит/сек
Каналы : 2 канала
Частота : 48,0 КГц
Метод сжатия : С потерями
Размер потока : 105 Мбайт (14%)
Выравнивание : Соединение по промежуткам
Продолжительность промежутка : 42 мс. (1,00 видеокадр)
Время предзагрузки промежутка : 504 мс.
Библиотека кодирования : LAME3.98

Скриншот c названием фильма

Название в фильме отсутствует...

Скриншоты





Последний раз редактировалось: wills (2017-03-18 05:08), всего редактировалось 1 раз

Создавать темы 18-Мар-2017 04:35

[Профиль]  [ЛС] 

Топик был перенесен из форума Фильмы за 2016 в форум CamRip, DVDScr и т.п.
ruhal

Создавать темы 18-Мар-2017 05:08

 
Показать сообщения:    
Ответить на тему

Текущее время: 14-Дек 09:23

Часовой пояс: UTC + 5



Вы не можете начинать темы
Вы не можете отвечать на сообщения
Вы не можете редактировать свои сообщения
Вы не можете удалять свои сообщения
Вы не можете голосовать в опросах
Вы не можете прикреплять файлы к сообщениям
Вы не можете скачивать файлы