Персональный покупатель / Personal Shopper (Оливье Ассайас) [2016, Франция, Германия / Arte France, arte France Cinéma, Canal+ [fr], триллер, драма, детектив, TeleSynch] (Dub)

Ответить на тему
 

trip ®

Стаж: 7 лет

Сообщений: 27

Симпатии: 5

Персональный покупатель / Personal Shopper
Страна: Франция, Германия / Arte France, arte France Cinéma, Canal+ [fr]
Жанр: триллер, драма, детектив
Год выпуска: 2016
Продолжительность: 01:40:53
Перевод: Профессиональный (дублированный)
Cубтитры: нет
Режиссер: Оливье Ассайас
В ролях: Кристен Стюарт, Ларс Айдингер, Сигрид Буази, Андерс Даниелсен Лье, Ty Olwin, Хамму Грайа, Нора фон Вальдштеттен, Бенжамин Биолэй, Одри Бонне, Паскаль Рамберт
Описание: Молодая американка Морин, переехавшая в Париж, помогает знаменитостям подбирать наряды. С миром высокой моды она на ты. Её жизнь кажется мечтой, но всё усложняет паранормальная особенность — Морин умеет общаться с призраками
Качество видео: TeleSynch
Формат видео: MP4
Видео: Mpeg-4, 720x384, 16:9, 30FPS, 1700 kbp
Аудио: MP3, 44.1 KHz, 2-ch

MediaInfo

General
Complete name : D:\Personal.Shopper.2O16TSRip.mp4
Format : MPEG-4
Format profile : Base Media
Codec ID : isom
File size : 1.27 GiB
Duration : 1h 41mn
Overall bit rate : 1 801 Kbps
Writing application : Lavf54.63.104
Video
ID : 1
Format : AVC
Format/Info : Advanced Video Codec
Format profile : [email protected]
Format settings, CABAC : Yes
Format settings, ReFrames : 1 frame
Codec ID : avc1
Codec ID/Info : Advanced Video Coding
Duration : 1h 41mn
Bit rate mode : Variable
Bit rate : 1 700 Kbps
Width : 720 pixels
Height : 384 pixels
Display aspect ratio : 1.875
Frame rate mode : Constant
Frame rate : 30.000 fps
Resolution : 24 bits
Colorimetry : 4:2:0
Scan type : Progressive
Bits/(Pixel*Frame) : 0.205
Stream size : 1.20 GiB (94%)
Writing library : x264 core 129
Encoding settings : cabac=1 / ref=1 / deblock=1:0:0 / analyse=0x1:0x131 / me=dia / subme=2 / psy=1 / psy_rd=1.00:0.00 / mixed_ref=0 / me_range=16 / chroma_me=1 / trellis=0 / 8x8dct=0 / cqm=0 / deadzone=21,11 / fast_pskip=1 / chroma_qp_offset=0 / threads=8 / lookahead_threads=1 / sliced_threads=0 / nr=0 / decimate=1 / interlaced=0 / bluray_compat=0 / constrained_intra=0 / bframes=0 / weightp=2 / keyint=250 / keyint_min=25 / scenecut=40 / intra_refresh=0 / rc_lookahead=40 / rc=abr / mbtree=1 / bitrate=1700 / ratetol=1.0 / qcomp=0.60 / qpmin=10 / qpmax=51 / qpstep=4 / ip_ratio=1.41 / aq=1:1.00
Audio
ID : 2
Format : MPEG Audio
Format version : Version 1
Format profile : Layer 3
Format settings, Mode : Joint stereo / MS Stereo
Codec ID : 6B
Duration : 1h 41mn
Bit rate mode : Constant
Bit rate : 96.0 Kbps
Channel(s) : 2 channels
Sampling rate : 44.1 KHz
Resolution : 16 bits
Stream size : 69.4 MiB (5%)
Writing library : LAME3.99.5

Скриншоты



Создавать темы 27-Мар-2017 16:53

[Профиль]  [ЛС] 
Показать сообщения:    
Ответить на тему

Текущее время: 15-Дек 20:46

Часовой пояс: UTC + 5



Вы не можете начинать темы
Вы не можете отвечать на сообщения
Вы не можете редактировать свои сообщения
Вы не можете удалять свои сообщения
Вы не можете голосовать в опросах
Вы не можете прикреплять файлы к сообщениям
Вы не можете скачивать файлы