Доспехи бога: В поисках сокровищ / Gong fu yu jia (Стэнли Тун) [2017, боевик, HDRip] [КОЛОБОК]

Ответить на тему
 

big boss ®

Стаж: 11 месяцев 12 дней

Сообщений: 219

Симпатии: 84

Доспехи бога: В поисках сокровищ / Gong fu yu jia
-Год выпуска: 2017
Страна: Индия, Китай
Жанр: боевик
Продолжительность: 01:44:01-Перевод: Профессиональный (многоголосый) [КОЛОБОК]
Cубтитры: нет-Имеется реклама: от спонсора показа-Режиссер: Стэнли Тун-В ролях: Джеки Чан, Диша Патани, Амира Дастур, Мия Муци, Сону Суд, Эрик Цан, Аариф Ли, Дэмиэн Мевис, Чжан Исин, Дэвид Торок-Описание: Профессора археологии Джека Си ждет по-настоящему увлекательное приключение. Нужно разгадать массу загадок и найти несметные сокровища древнего королевства. За самым большим кладом в истории охотится еще и могущественный преступный синдикат. Джеку вместе с командой предстоит проявить умения и смекалку, и завоевать сердце принцессы.-Качество видео: HDRip
Формат видео: AVI-Видео: Xvid 720x304 25fps 1 550 kb/s
Аудио: Dolby AC3 48000Hz 6ch 448kbps--

MI

General
Complete name : E:\Torrents\Загружаются\Kung.Fu.Yoga.2017.P.HDRip.14OOMB_KOSHARA.avi
Format : AVI
Format/Info : Audio Video Interleave
File size : 1.46 GiB
Duration : 1 h 44 min
Overall bit rate : 2 007 kb/s
Writing application : VirtualDubMod 1.5.10.2 (build 2540/release)
Writing library : VirtualDubMod build 2540/release
Video
ID : 0
Format : MPEG-4 Visual
Format profile : Advanced [email protected]
Format settings, BVOP : 2
Format settings, QPel : No
Format settings, GMC : No warppoints
Format settings, Matrix : Default (MPEG)
Codec ID : XVID
Codec ID/Hint : XviD
Duration : 1 h 44 min
Bit rate : 1 550 kb/s
Width : 720 pixels
Height : 304 pixels
Display aspect ratio : 2.35:1
Frame rate : 25.000 FPS
Color space : YUV
Chroma subsampling : 4:2:0
Bit depth : 8 bits
Scan type : Progressive
Compression mode : Lossy
Bits/(Pixel*Frame) : 0.283
Stream size : 1.13 GiB (77%)
Writing library : XviD 1.2.1 (UTC 2008-12-04)
Audio
ID : 1
Format : AC-3
Format/Info : Audio Coding 3
Format settings, Endianness : Big
Codec ID : 2000
Duration : 1 h 44 min
Bit rate mode : Constant
Bit rate : 448 kb/s
Channel(s) : 6 channels
Channel positions : Front: L C R, Side: L R, LFE
Sampling rate : 48.0 kHz
Frame rate : 31.250 FPS (1536 spf)
Bit depth : 16 bits
Compression mode : Lossy
Stream size : 333 MiB (22%)
Alignment : Split accross interleaves
Interleave, duration : 40 ms (1.00 video frame)
Interleave, preload duration : 500 ms
Service kind : Complete Main

Создавать темы 06-Май-2017 14:37

[Профиль]  [ЛС] 

Топик был перенесен из форума Фильмы за 2017 в форум Азиатские фильмы
mp1988

Создавать темы 06-Май-2017 20:07

 
Показать сообщения:    
Ответить на тему

Текущее время: 14-Дек 03:47

Часовой пояс: UTC + 5



Вы не можете начинать темы
Вы не можете отвечать на сообщения
Вы не можете редактировать свои сообщения
Вы не можете удалять свои сообщения
Вы не можете голосовать в опросах
Вы не можете прикреплять файлы к сообщениям
Вы не можете скачивать файлы