Скачать Альфа и Омега: Путешествие в медвежье королевство / Alpha and Omega: Journey to Bear Kingdom (Тим Молтби) [2017, Семейный / Мультфильм / Приключения, WEB-DL 720p] [КОЛОБОК] в Тас-икс (Tas-ix)

Ответить на тему
 

big boss ®

Стаж: 1 год 10 месяцев

Сообщений: 648

Симпатии: 238

Альфа и Омега: Путешествие в медвежье королевство
Alpha and Omega: Journey to Bear Kingdom

--Год выпуска: 2017
Страна: США, Crest Animation Productions
Жанр: Мультфильм, приключения, семейный, полнометражный
Продолжительность: 00:45:08--Перевод: Любительский (многоголосый) [КОЛОБОК]
Cубтитры: нет
Режиссер: Тим Молтби--В ролях: Кейт Хиггинс, Бен Дискин, Деби Дерриберри, Мэриев Херингтон, Крис Кент, Эрин Фицджералд, Джошуа Томар--Описание: Сюжет мультфильма: :
Когда Королева Медведица и ее дочь, принцесса Кэнью, находится с визитом в Восточной Долине, начинается Великая война... Дикие волки нападают на Западную Стаю и Армию Медведей... Теперь пришло время для Стинки, Клодетты и Ранта помочь принцессе Кэнью вернуться домой и восстановить благополучие в своем Королевстве...--Качество видео: WEB-DL 720p
Формат видео: MKV (x264)--Видео: MPEG4 Video (H264) 1280x716 23.976fps 3 967 kb/s
Аудио: Dolby AC3 48000Hz stereo 384kbps--

MediaInfo

General
Unique ID : 194319475551074781207919951213003463202 (0x923091D62A291F5DB47EDFB037BEDA22)
Complete name : E:\Torrents\Загружаются\Alpha.&.Omega.Journey.to.Bear.Kingd.2O17.P.WEB-DL.72Op_mkv
Format : Matroska
Format version : Version 2
File size : 1.37 GiB
Duration : 45 min 8 s
Overall bit rate mode : Variable
Overall bit rate : 4 353 kb/s
Encoded date : UTC 2017-05-29 14:57:09
Writing application : mkvmerge v8.3.0 ('Over the Horizon') 64bit
Writing library : libebml v1.3.1 + libmatroska v1.4.2
Video
ID : 1
Format : AVC
Format/Info : Advanced Video Codec
Format profile : [email protected]
Format settings, CABAC : Yes
Format settings, ReFrames : 9 frames
Codec ID : V_MPEG4/ISO/AVC
Duration : 45 min 8 s
Bit rate mode : Variable
Bit rate : 3 967 kb/s
Maximum bit rate : 4 500 kb/s
Width : 1 280 pixels
Height : 716 pixels
Display aspect ratio : 16:9
Frame rate mode : Constant
Frame rate : 23.976 (24000/1001) FPS
Standard : Component
Color space : YUV
Chroma subsampling : 4:2:0
Bit depth : 8 bits
Scan type : Progressive
Bits/(Pixel*Frame) : 0.181
Stream size : 1.25 GiB (91%)
Default : Yes
Forced : No
Color range : Limited
Color primaries : BT.709
Transfer characteristics : BT.709
Matrix coefficients : BT.709
Audio
ID : 2
Format : AC-3
Format/Info : Audio Coding 3
Format settings, Endianness : Big
Codec ID : A_AC3
Duration : 45 min 8 s
Bit rate mode : Constant
Bit rate : 384 kb/s
Channel(s) : 2 channels
Channel positions : Front: L R
Sampling rate : 48.0 kHz
Frame rate : 31.250 FPS (1536 spf)
Bit depth : 16 bits
Compression mode : Lossy
Stream size : 124 MiB (9%)
Service kind : Complete Main
Default : Yes
Forced : No

Создавать темы 30-Май-2017 14:06

[Профиль]  [ЛС] 

Топик был перенесен из форума Мультфильмы в форум HD-AVC
ruhal

Создавать темы 30-Май-2017 22:19

 
Показать сообщения:    
Ответить на тему

Текущее время: 15-Ноя 22:40

Часовой пояс: UTC + 5



Вы не можете начинать темы
Вы не можете отвечать на сообщения
Вы не можете редактировать свои сообщения
Вы не можете удалять свои сообщения
Вы не можете голосовать в опросах
Вы не можете прикреплять файлы к сообщениям
Вы не можете скачивать файлы