Одарённая / Gifted (Марк Уэбб) [2017, Драма, WEBRip] (Dub : (Чистый звук))

Ответить на тему
 

big boss ®

Стаж: 11 месяцев 12 дней

Сообщений: 219

Симпатии: 84

Одарённая / Gifted -Год выпуска: 2017
Страна: США
Жанр: Драма
Продолжительность: 01:39:54-Перевод: Профессиональный (дублированный) (Чистый звук)
Cубтитры: нет-Режиссер: Марк Уэбб-В ролях:
Крис Эванс, МакКенна Грейс, Линдси Дункан, Дженни Слейт, Октавия Спенсер, Michael Kendall Kaplan, Джон М. Джексон, Гленн Пламмер, Джон Финн, Элизабет Марвел-Описание:
Не у всех детей счастливое детство. К сожалению, иногда случаются непоправимые трагедии. В новом фильме «Одаренная», у совсем еще юной девочки Марии из жизни уходит родной и любимый человек – ее мама. Девочка осталась сиротой и почти никому нет дела относительно ее будущей судьбы. Однако, к счастью, у мамы был родной брат Фрэнк, который очень любил свою племянницу. Фрэнк, самый обычный парень, работает в своем городке грузчиком и почти никогда не мечтает о чем-то возвышенном. Иногда, правда, задумывается о своей жизни, глядя на морской прибой. Когда же произошла трагедия, молодой мужчина понял, что если он не примет нужного решения, его племянница окажется в детском доме, а он не может этого допустить. Френку приходиться доказывать о своей состоятельности воспитывать девочку. Когда же ему удается это и малышка начала жить с ним под одной крышей, они стали настоящими друзьями. Со временем у Марии обнаружились способности к математике, и дядя решает во что бы то ни стало развивать их. Но про гениальность девочки узнает и ее родная бабушка, властная и деспотичная женщина. Она решает забрать девочку и вырастить из нее гения. На этой почве начинается борьба бабушки и дяди. Кто же выиграет? Пострадает ли при этом девочка? Ответы сможем узнать только после просмотра фильма.?-Качество видео: WEBRip
Формат видео: AVI-Видео: Xvid 720x304 25fps 1730kbps
Аудио: AC3 48000Hz stereo 256kbps 2 channels--

MediaInfo

General
Complete name : D:\Torrents\Загружаются\Gifted.avi
Format : AVI
Format/Info : Audio Video Interleave
File size : 1.37 GiB
Duration : 1 h 37 min
Overall bit rate : 1 997 kb/s
Writing application : VirtualDubMod 1.5.10.2 (build 2540/release)
Writing library : VirtualDubMod build 2540/release
Video
ID : 0
Format : MPEG-4 Visual
Format profile : Advanced [email protected]
Format settings, BVOP : 2
Format settings, QPel : No
Format settings, GMC : No warppoints
Format settings, Matrix : Default (MPEG)
Codec ID : XVID
Codec ID/Hint : XviD
Duration : 1 h 37 min
Bit rate : 1 731 kb/s
Width : 720 pixels
Height : 304 pixels
Display aspect ratio : 2.35:1
Frame rate : 25.000 FPS
Color space : YUV
Chroma subsampling : 4:2:0
Bit depth : 8 bits
Scan type : Progressive
Compression mode : Lossy
Bits/(Pixel*Frame) : 0.316
Stream size : 1.18 GiB (87%)
Writing library : XviD 1.2.1 (UTC 2008-12-04)
Audio
ID : 1
Format : AC-3
Format/Info : Audio Coding 3
Format settings, Endianness : Big
Codec ID : 2000
Duration : 1 h 37 min
Bit rate mode : Constant
Bit rate : 256 kb/s
Channel(s) : 2 channels
Channel positions : Front: L R
Sampling rate : 48.0 kHz
Frame rate : 31.250 FPS (1536 spf)
Bit depth : 16 bits
Compression mode : Lossy
Stream size : 179 MiB (13%)
Alignment : Split accross interleaves
Interleave, duration : 40 ms (1.00 video frame)
Interleave, preload duration : 500 ms
Service kind : Complete Main
Скриншоты

Создавать темы 14-Июн-2017 06:29

[Профиль]  [ЛС] 

umen78

Стаж: 1 год 8 месяцев

Сообщений: 10

Симпатии: 3

Как фильм?

Создавать темы 14-Июн-2017 08:34

[Профиль]  [ЛС] 

Топик был перенесен из форума Фильмы за 2017 в форум CamRip, DVDScr и т.п.
ruhal

Создавать темы 14-Июн-2017 09:28

 

ch-andre

Стаж: 2 года

Сообщений: 5

Симпатии: 9

по описанию сериал, который сжали до одной серии)

Создавать темы 16-Июн-2017 00:30

[Профиль]  [ЛС] 
Показать сообщения:    
Ответить на тему

Текущее время: 14-Дек 18:24

Часовой пояс: UTC + 5



Вы не можете начинать темы
Вы не можете отвечать на сообщения
Вы не можете редактировать свои сообщения
Вы не можете удалять свои сообщения
Вы не можете голосовать в опросах
Вы не можете прикреплять файлы к сообщениям
Вы не можете скачивать файлы