Скачать Кавказская пленница или Новые приключения Шурика (Леонид Гайдай) [1967 г., мелодрама, комедия, приключения, семейный, музыка, BDRip 1080p] в Тас-икс (Tas-ix)

Ответить на тему
 

Rammstein ®

Стаж: 6 лет 5 месяцев

Сообщений: 320

Симпатии: 117

Кавказская пленница или Новые приключения Шурика

Год выпуска: 1967
Жанр: мелодрама, комедия, приключения, семейный, музыка
Продолжительность: 01:19:53
Режиссер: Леонид Гайдай
В ролях: Александр Демьяненко, Наталья Варлей, Руслан Ахметов, Юрий Никулин, Георгий Вицин, Евгений Моргунов, Владимир Этуш, Фрунзик Мкртчян, Нина Гребешкова, Михаил Глузский
Описание: Отправившись в одну из горных республик собирать фольклор, герой фильма Шурик влюбляется в симпатичную девушку — «спортсменку, отличницу, и просто красавицу». Но ее неожиданно похищают, чтобы насильно выдать замуж.
Наивный Шурик не сразу смог сообразить, что творится у него под носом, — однако затем отважно ринулся освобождать «кавказскую пленницу»…
Формат: Matroska
Качество: BDRip 1080
Видео: AVC at 12,1 Мбит/сек 1472 x 1080 (1.363) at 23.976 fps
Аудио #1: AC-3 at 640 Кбит/сек 6 канала(ов), 48,0 КГц
Аудио #2: DTS at 1510 Кбит/сек 6 канала(ов), 48,0 КГц

MI

Общее
Уникальный идентификатор : 236392258809182397540422277133902374489 (0xB1D77E3457DD591AB82CDB2E56156659)
Полное имя : D:\Торренты\Советское кино\Кавказская пленница, или Новые приключения Шурика.mkv
Формат : Matroska
Версия формата : Version 2
Размер файла : 7,92 Гбайт
Продолжительность : 1 ч. 19 м.
Режим общего битрейта : Переменный
Общий поток : 14,2 Мбит/сек
Название фильма : Кавказская пленница, или новые приключения Шурика_Rip1080_HDReactor.org
Дата кодирования : UTC 2011-05-27 00:01:25
Программа кодирования : mkvmerge v3.4.0 ('Rapunzel') сборка от May 15 2010 09:38:20
Библиотека кодирования : libebml v0.8.0 + libmatroska v0.9.0
Видео
Идентификатор : 1
Формат : AVC
Формат/Информация : Advanced Video Codec
Профиль формата : [email protected]
Параметр CABAC формата : Да
Параметр ReFrames формата : 4 кадра
Идентификатор кодека : V_MPEG4/ISO/AVC
Продолжительность : 1 ч. 19 м.
Вид битрейта : Переменный
Битрейт : 12,1 Мбит/сек
Максимальный битрейт : 40,0 Мбит/сек
Ширина : 1472 пикселя
Высота : 1080 пикселей
Соотношение сторон : 4:3
Режим частоты кадров : Постоянный
Частота кадров : 23,976 (24000/1001) кадра/сек
Цветовое пространство : YUV
Субдискретизация насыщенности : 4:2:0
Битовая глубина : 8 бит
Тип развёртки : Прогрессивная
Бит/(Пиксели*Кадры) : 0.316
Размер потока : 6,57 Гбайт (83%)
Библиотека кодирования : x264 core 114 r1924 08d04a4
Настройки программы : cabac=1 / ref=5 / deblock=1:-3:-3 / analyse=0x3:0x113 / me=umh / subme=10 / psy=1 / psy_rd=0.90:0.05 / mixed_ref=1 / me_range=32 / chroma_me=1 / trellis=2 / 8x8dct=1 / cqm=0 / deadzone=21,11 / fast_pskip=0 / chroma_qp_offset=-3 / threads=6 / sliced_threads=0 / slices=4 / nr=0 / decimate=0 / interlaced=0 / constrained_intra=0 / bframes=7 / b_pyramid=1 / b_adapt=2 / b_bias=0 / direct=1 / weightb=1 / open_gop=0 / weightp=2 / keyint=250 / keyint_min=23 / scenecut=40 / intra_refresh=0 / rc_lookahead=40 / rc=2pass / mbtree=0 / bitrate=12050 / ratetol=1.0 / qcomp=0.60 / qpmin=10 / qpmax=51 / qpstep=4 / cplxblur=20.0 / qblur=0.5 / vbv_maxrate=40000 / vbv_bufsize=30000 / nal_hrd=vbr / ip_ratio=1.40 / pb_ratio=1.30 / aq=1:0.80
Язык : Russian
Default : Нет
Forced : Нет
Аудио #1
Идентификатор : 2
Формат : AC-3
Формат/Информация : Audio Coding 3
Параметр Endianness формата : Big
Идентификатор кодека : A_AC3
Продолжительность : 1 ч. 19 м.
Вид битрейта : Постоянный
Битрейт : 640 Кбит/сек
Каналы : 6 каналов
Расположение каналов : Front: L C R, Side: L R, LFE
Частота : 48,0 КГц
Частота кадров : 31,250 кадров/сек (1536 spf)
Битовая глубина : 16 бит
Метод сжатия : С потерями
Размер потока : 366 Мбайт (5%)
Заголовок : AC-3
Язык : Russian
ServiceKind/String : Complete Main
Default : Да
Forced : Нет
Аудио #2
Идентификатор : 3
Формат : DTS
Формат/Информация : Digital Theater Systems
Режим : 16
Параметр Endianness формата : Big
Идентификатор кодека : A_DTS
Продолжительность : 1 ч. 19 м.
Вид битрейта : Постоянный
Битрейт : 1509 Кбит/сек
Каналы : 6 каналов
Расположение каналов : Front: L C R, Side: L R, LFE
Частота : 48,0 КГц
Частота кадров : 93,750 кадра/сек (512 spf)
Битовая глубина : 24 бит
Метод сжатия : С потерями
Размер потока : 862 Мбайт (11%)
Заголовок : DTS
Язык : Russian
Default : Нет
Forced : Нет
Меню
00:00:00.000 : en:00:00:00.000
00:05:52.477 : en:00:05:52.477
00:09:11.718 : en:00:09:11.718
00:11:31.190 : en:00:11:31.190
00:16:08.551 : en:00:16:08.551
00:23:07.970 : en:00:23:07.970
00:26:04.730 : en:00:26:04.730
00:31:01.234 : en:00:31:01.234
00:33:40.435 : en:00:33:40.435
00:38:45.907 : en:00:38:45.907
00:44:11.148 : en:00:44:11.148
00:51:10.734 : en:00:51:10.734
00:57:19.227 : en:00:57:19.227
01:00:15.070 : en:01:00:15.070
01:13:13.431 : en:01:13:13.431
01:18:14.857 : en:01:18:14.857

Создавать темы 29-Июн-2017 11:34

[Профиль]  [ЛС] 

kopkaish

Стаж: 3 года 8 месяцев

Сообщений: 43

Симпатии: 16

спс круто

Создавать темы 30-Июн-2017 18:43

[Профиль]  [ЛС] 
Показать сообщения:    
Ответить на тему

Текущее время: 13-Дек 21:41

Часовой пояс: UTC + 5



Вы не можете начинать темы
Вы не можете отвечать на сообщения
Вы не можете редактировать свои сообщения
Вы не можете удалять свои сообщения
Вы не можете голосовать в опросах
Вы не можете прикреплять файлы к сообщениям
Вы не можете скачивать файлы