Скачать Сибирский потрошитель (Сергей Жизненный) [2016, Ужасы, триллер, драма, WEB-DL 1080p] в Тас-икс (Tas-ix)

Ответить на тему
 

big boss ®

Стаж: 1 год 11 месяцев

Сообщений: 648

Симпатии: 238

Сибирский потрошитель Жанр: Ужасы, триллер, драма
Год выпуска: 2016
Страна: Россия
Продолжительность: 01:20:00

Режиссёр: Сергей Жизненный

В ролях: Дарья Рева, Юлия Радаева, Анастасия Комарова, Вера Базанова, Алексей Шарков, Александр Пикалов, Юрий Борисенко, Елена Речкова, Евгения Ширяева, Илья Бородин, Татьяна Филиппова, Анна Евтина, Екатерина Воронцова, Кирилл Игнатов, Дмитрий Нестеров, Пётр Романенко, Вадим Белобородов, Андроник Гейвах, Сергей Жизненный

Описание: Фильм основан на реальных событиях, повествующий о тяжких злодеяниях российского серийного убийцы, каннибала — Александра Николаевича Спесивцева, получившего прозвище "Сибирский потрошитель"...

Качество видео: WEB-DL 1080p
Формат видео: MKV

Видео: MPEG4 Video (H264) 1920x1080 25fps
Аудио: Dolby AC3 48000Hz stereo 192kbps


MediaInfo

General
Unique ID : 253960986497944930202049126144275349040 (0xBF0F1B5B318547298E328D9738DF7E30)
Complete name : E:\Torrents\Загружаются\Siberian Ripper.2016.WEB-DL1080p.mkv
Format : Matroska
Format version : Version 4 / Version 2
File size : 1.54 GiB
Duration : 1 h 20 min
Overall bit rate : 2 757 kb/s
Encoded date : UTC 2017-09-26 16:47:36
Writing application : mkvmerge v9.7.1 ('Pandemonium') 64bit
Writing library : libebml v1.3.4 + libmatroska v1.4.5
Video
ID : 1
Format : AVC
Format/Info : Advanced Video Codec
Format profile : [email protected]
Format settings, CABAC : Yes
Format settings, RefFrames : 2 frames
Codec ID : V_MPEG4/ISO/AVC
Duration : 1 h 20 min
Bit rate : 2 563 kb/s
Width : 1 920 pixels
Height : 1 080 pixels
Display aspect ratio : 16:9
Frame rate mode : Constant
Frame rate : 25.000 FPS
Color space : YUV
Chroma subsampling : 4:2:0
Bit depth : 8 bits
Scan type : Progressive
Bits/(Pixel*Frame) : 0.049
Stream size : 1.43 GiB (93%)
Default : Yes
Forced : No
Color range : Limited
Color primaries : BT.709
Transfer characteristics : BT.709
Matrix coefficients : BT.709
Audio
ID : 2
Format : AC-3
Format/Info : Audio Coding 3
Format settings, Endianness : Big
Codec ID : A_AC3
Duration : 1 h 20 min
Bit rate mode : Constant
Bit rate : 192 kb/s
Channel(s) : 2 channels
Channel positions : Front: L R
Sampling rate : 48.0 kHz
Frame rate : 31.250 FPS (1536 SPF)
Bit depth : 16 bits
Compression mode : Lossy
Stream size : 110 MiB (7%)
Service kind : Complete Main
Default : Yes
Forced : No


Создавать темы 27-Сен-2017 20:59

[Профиль]  [ЛС] 

Laki

Стаж: 6 лет 8 месяцев

Сообщений: 51

Симпатии: 4

Сплошной кошмар

Создавать темы 28-Сен-2017 19:54

[Профиль]  [ЛС] 

Топик был перенесен из форума Фильмы за 2016 в форум Российские кино
ruhal

Создавать темы 28-Сен-2017 23:53

 
Показать сообщения:    
Ответить на тему

Текущее время: 13-Дек 21:47

Часовой пояс: UTC + 5



Вы не можете начинать темы
Вы не можете отвечать на сообщения
Вы не можете редактировать свои сообщения
Вы не можете удалять свои сообщения
Вы не можете голосовать в опросах
Вы не можете прикреплять файлы к сообщениям
Вы не можете скачивать файлы