Чайка и гроб: Возмездие / Hitsugi no Chaika: Avenging Battle [TV-2] (Масуй Сойти) [10 из 10] [RUS] [Jam & Trina_D] [2014 г., приключения, комедия, романтика, фэнтези, HDTVRip] [720p]

Страницы :  1, 2  След.

Ответить на тему
 

SNIL ®

Стаж: 5 лет 9 месяцев

Сообщений: 2624

Симпатии: 341

Чайка и гроб: Возмездие
Hitsugi no Chaika: Avenging Battle
-
Год выпуска: 2014
Страна: Япония
Жанр: приключения, комедия, романтика, фэнтези
Продолжительность: 12 эп. по 25 мин.-Озвучка:
  • Jam & Trina_D
-Режиссёр: Масуй Сойти
Автор оригинала: Сакаки Итиро
Студия: -Описание:
В прошлом существовала империя Газу. Империя обладала беспрецедентной силой, но говорят что это была не сила империи, а сила ее императора, Артура Газу. Он занимался передовыми исследованиями в области магии, плоды которых используются и поныне и в течение трехсот лет держал весь континент под своим контролем. Однако, в итоге он был побежден и его тело было разделено на множество частей ставших могущественными магическими артефактами. Каждый из участвующих в битве героев получил по одной части тела побежденного. Хотя империя Газу была уничтожена и на континенте был достигнут мир, влияние империи все еще велико. По миру все еще рассеяны сторонники Газу, а некоторые даже поклоняются дочери Артура, Чайке Трабант надеясь возродить империю. И хотя война и окончилась, многие люди продолжают работать на военную машину.
Главный персонаж, Тору Акура был обучен как диверсант. Но теперь его специальность не нужна и он круглыми сутками бездельничает. Его сестра Акари заставляет брата найти работу, в результате чего Тору натыкается на Чайку и нанимается к ней. Вскоре он узнает что его нанимательница — дочь Артура, а цель ее путешествия — собрать останки отца и похоронить их. Также выясняется что все считают что само существование Чайки угрожает гражданской войной. Однако, это не пугает Тору и он продолжает путешествовать с Чайкой.-Качество: HDTVRip
Формат видео: mp4
Видео: x264 (8 bits), 1280х720, 1 800 kbps, 25.000 fps
Аудио Russian: ААС, 44.0 kHz, 128 Kbps, 2ch -

Подробные тех. данные

E:\Аниме\Hitsugi no Chaika Avenging Battle [1] [Jam & Trina_D].mp4
   General
      Complete name : E:\Аниме\Hitsugi no Chaika Avenging Battle [1] [Jam & Trina_D].mp4
      Format : MPEG-4
      Format profile : Base Media
      Codec ID : isom
      File size : 342 MiB
      Duration : 24mn 0s
      Overall bit rate : 1 992 Kbps
      Writing application : Lavf54.59.106
   Video #1
      ID : 1
      Format : AVC
      Format/Info : Advanced Video Codec
      Format profile : [email protected]
      Format settings, CABAC : Yes
      Format settings, ReFrames : 4 frames
      Format settings, GOP : M=4, N=8
      Codec ID : avc1
      Codec ID/Info : Advanced Video Coding
      Duration : 24mn 0s
      Duration_LastFrame : -1ms
      Bit rate mode : Variable
      Bit rate : 1 800 Kbps
      Width : 1 280 pixels
      Height : 720 pixels
      Display aspect ratio : 16:9
      Frame rate mode : Constant
      Frame rate : 25.000 fps
      Color space : YUV
      Chroma subsampling : 4:2:0
      Bit depth : 8 bits
      Scan type : Progressive
      Bits/(Pixel*Frame) : 0.078
      Stream size : 319 MiB (93%)
      Writing library : x264 core 129
      Encoding settings : cabac=1 / ref=3 / deblock=1:0:0 / analyse=0x3:0x113 / me=hex / subme=7 / psy=1 / psy_rd=1.00:0.00 / mixed_ref=1 / me_range=16 / chroma_me=1 / trellis=1 / 8x8dct=1 / cqm=0 / deadzone=21,11 / fast_pskip=1 / chroma_qp_offset=-2 / threads=24 / lookahead_threads=4 / sliced_threads=0 / nr=0 / decimate=1 / interlaced=0 / bluray_compat=0 / constrained_intra=0 / bframes=3 / b_pyramid=2 / b_adapt=1 / b_bias=0 / direct=1 / weightb=1 / open_gop=0 / weightp=2 / keyint=250 / keyint_min=25 / scenecut=40 / intra_refresh=0 / rc_lookahead=40 / rc=abr / mbtree=1 / bitrate=1800 / ratetol=1.0 / qcomp=0.60 / qpmin=0 / qpmax=69 / qpstep=4 / ip_ratio=1.40 / aq=1:1.00
   Audio #2
      ID : 2
      Format : AAC
      Format/Info : Advanced Audio Codec
      Format version : Version 4
      Format profile : LC
      Format settings, SBR : No
      Codec ID : 40
      Duration : 23mn 59s
      Bit rate mode : Constant
      Bit rate : 128 Kbps
      Channel(s) : 2 channels
      Channel positions : Front: L R
      Sampling rate : 44.1 KHz
      Stream size : 22.0 MiB (6%)
      Language : English

Скриншоты



Последний раз редактировалось: SNIL (2014-12-15 18:31), всего редактировалось 9 раз(а)

Создавать темы 22-Окт-2014 21:05

[Профиль]  [ЛС] 

SNIL ®

Стаж: 5 лет 9 месяцев

Сообщений: 2624

Симпатии: 341

Возвращение Брежнева в юбке)

Создавать темы 22-Окт-2014 22:02

[Профиль]  [ЛС] 

Азиз87

Стаж: 4 года 11 месяцев

Сообщений: 752

Симпатии: 143

887915Возвращение Брежнева в юбке)
Вы К-он видели? Вот там настоящий прототип, а тут лишь прообраз!

Комментарий от SNIL


ахах (видел пару серий), так и есть!

Создавать темы 22-Окт-2014 22:33

[Профиль]  [ЛС] 

SNIL ®

Стаж: 5 лет 9 месяцев

Сообщений: 2624

Симпатии: 341

Серия 3

Создавать темы 28-Окт-2014 18:52

[Профиль]  [ЛС] 

SNIL ®

Стаж: 5 лет 9 месяцев

Сообщений: 2624

Симпатии: 341

Серия 4

Создавать темы 05-Ноя-2014 19:16

[Профиль]  [ЛС] 

SNIL ®

Стаж: 5 лет 9 месяцев

Сообщений: 2624

Симпатии: 341

Серия 5

Создавать темы 12-Ноя-2014 19:32

[Профиль]  [ЛС] 

SNIL ®

Стаж: 5 лет 9 месяцев

Сообщений: 2624

Симпатии: 341

В связи с санкциями в отношении нашего города, раздача будет вестись очень редко (надеюсь на ваше понимание, ибо у вас наверное тоже самое творится)

Создавать темы 12-Ноя-2014 20:31

[Профиль]  [ЛС] 

SNIL ®

Стаж: 5 лет 9 месяцев

Сообщений: 2624

Симпатии: 341

Серия 6

Создавать темы 21-Ноя-2014 18:42

[Профиль]  [ЛС] 

SNIL ®

Стаж: 5 лет 9 месяцев

Сообщений: 2624

Симпатии: 341

Серия 7

Создавать темы 24-Ноя-2014 18:27

[Профиль]  [ЛС] 

SNIL ®

Стаж: 5 лет 9 месяцев

Сообщений: 2624

Симпатии: 341

Серия 8

Создавать темы 01-Дек-2014 18:42

[Профиль]  [ЛС] 

bbs-97

Стаж: 4 года 4 месяца

Сообщений: 83

Симпатии: 68

SNIL, название конкретное )

Комментарий от SNIL


Да и сама анимешка ни чо!

Создавать темы 02-Дек-2014 00:32

[Профиль]  [ЛС] 

SNIL ®

Стаж: 5 лет 9 месяцев

Сообщений: 2624

Симпатии: 341

Серия 9

Создавать темы 09-Дек-2014 20:24

[Профиль]  [ЛС] 

Топик был перенесен из форума Аниме онгоинги в форум HD, HDTVRip
SNIL

Создавать темы 15-Дек-2014 18:31

 

SNIL ®

Стаж: 5 лет 9 месяцев

Сообщений: 2624

Симпатии: 341

Серия 10, Релиз завершён

Создавать темы 15-Дек-2014 18:33

[Профиль]  [ЛС] 

freeman171

Стаж: 6 лет 9 месяцев

Сообщений: 51

Чё такая маленькая скорость?

Комментарий от SNIL


Так надо отключить все остальные закачки (а вось и пойдёт лучше)

Создавать темы 16-Дек-2014 11:12

[Профиль]  [ЛС] 
Показать сообщения:    
Ответить на тему

Текущее время: 24-Окт 16:05

Часовой пояс: UTC + 5



Вы не можете начинать темы
Вы не можете отвечать на сообщения
Вы не можете редактировать свои сообщения
Вы не можете удалять свои сообщения
Вы не можете голосовать в опросах
Вы не можете прикреплять файлы к сообщениям
Вы не можете скачивать файлы