Ми Ми / Mimi / Mimi [4 из 4] [2014, мелодрама, HDTVRip] [RAW] [720p] [DVO.STEPonee]

Ответить на тему
 

Zab ®

Стаж: 6 лет 7 месяцев

Сообщений: 476

Симпатии: 424

-Страна: Южная Корея
Год выпуска: 2014
Жанр: мелодрама, мистика
Продолжительность: 4 из 4
Режиссер: Сон Чан Су
Перевод: Профессиональный (многоголосый, закадровый) Русская озвучка от "STEPonee"-В ролях:
Шим Чан Мин - Хан Мин У
Мун Га Ён - Ми Ми
Шин Хён Бин - Чан Ын Хё
Юн Да Кён - мама Мин У
Чон Чжи Сун
Ли Ён Кён - тетя Ми Ми
Ким Чжун Гу
Бэк Хён
Чхве Ён Су - Сон У
Ко Вон - репетитор Мин У-Описание: Мин У находит у себя старый календарь 2003 года, который внезапно вдохновляет его на создание комикса.
Комикс тотчас же становится хитом. Но чем дальше Мин У идет, тем больше чувствует давление и усталость.
К тому же он не помнит ничего о событиях 2003 года.
Что же за воспоминания хранит этот календарь? Почему Мин У ничего об этом не помнит?
Теперь главному герою предстоит это выяснить.-Доп.информация:
Перевод - Lady Flame & AngelMa
Качество видео: HDTVRip
Разрешение: 720p
Формат: MP4
Видео: MPEG4 Video (H264) 1280x720 29.97fps 2213kbps
Аудио: AAC 48000Hz stereo 128kbps

MediaInfo

General
Complete name                            : D:\[Movies]\Mimi.2014.HDTVRip.H264.720p.AAC.DVO.STEPonee\Mimi.2014.ep01.HDTVRip.H264.720p.AAC.DVO.STEPonee.mp4
Format                                   : MPEG-4
Format profile                           : Base Media
Codec ID                                 : isom
File size                                : 1.19 GiB
Duration                                 : 1h 12mn
Overall bit rate                         : 2 353 Kbps
Writing application                      : Lavf54.63.104
Video
ID                                       : 1
Format                                   : AVC
Format/Info                              : Advanced Video Codec
Format profile                           : [email protected]
Format settings, CABAC                   : Yes
Format settings, ReFrames                : 4 frames
Codec ID                                 : avc1
Codec ID/Info                            : Advanced Video Coding
Duration                                 : 1h 12mn
Bit rate                                 : 2 200 Kbps
Width                                    : 1 280 pixels
Height                                   : 720 pixels
Display aspect ratio                     : 16:9
Frame rate mode                          : Variable
Frame rate                               : 29.970 fps
Minimum frame rate                       : 14.986 fps
Maximum frame rate                       : 29.971 fps
Color space                              : YUV
Chroma subsampling                       : 4:2:0
Bit depth                                : 8 bits
Scan type                                : Progressive
Bits/(Pixel*Frame)                       : 0.080
Stream size                              : 1.12 GiB (94%)
Writing library                          : x264 core 128 r2216 198a7ea
Encoding settings                        : cabac=1 / ref=3 / deblock=1:0:0 / analyse=0x3:0x113 / me=hex / subme=7 / psy=1 / psy_rd=1.00:0.00 / mixed_ref=1 / me_range=16 / chroma_me=1 / trellis=1 / 8x8dct=1 / cqm=0 / deadzone=21,11 / fast_pskip=1 / chroma_qp_offset=-2 / threads=12 / lookahead_threads=2 / sliced_threads=0 / nr=0 / decimate=1 / interlaced=0 / bluray_compat=0 / constrained_intra=0 / bframes=3 / b_pyramid=2 / b_adapt=1 / b_bias=0 / direct=1 / weightb=1 / open_gop=0 / weightp=2 / keyint=250 / keyint_min=25 / scenecut=40 / intra_refresh=0 / rc_lookahead=40 / rc=abr / mbtree=1 / bitrate=2200 / ratetol=1.0 / qcomp=0.60 / qpmin=0 / qpmax=69 / qpstep=4 / vbv_maxrate=50000 / vbv_bufsize=50000 / nal_hrd=none / ip_ratio=1.40 / aq=1:1.00
Audio
ID                                       : 2
Format                                   : AAC
Format/Info                              : Advanced Audio Codec
Format profile                           : LC
Codec ID                                 : 40
Duration                                 : 1h 12mn
Bit rate mode                            : Constant
Bit rate                                 : 128 Kbps
Channel(s)                               : 2 channels
Channel positions                        : Front: L R
Sampling rate                            : 48.0 KHz
Compression mode                         : Lossy
Stream size                              : 66.7 MiB (5%)
Language                                 : Russian

Скриншоты



Последний раз редактировалось: Zab (2015-03-05 16:07), всего редактировалось 1 раз

Создавать темы 23-Окт-2014 10:39

[Профиль]  [ЛС] 

elisabeth

Стаж: 4 года 8 месяцев

Сообщений: 2

Очень интересный сериал!

Создавать темы 01-Ноя-2014 18:03

[Профиль]  [ЛС] 
Показать сообщения:    
Ответить на тему

Текущее время: 24-Ноя 21:43

Часовой пояс: UTC + 5



Вы не можете начинать темы
Вы не можете отвечать на сообщения
Вы не можете редактировать свои сообщения
Вы не можете удалять свои сообщения
Вы не можете голосовать в опросах
Вы не можете прикреплять файлы к сообщениям
Вы не можете скачивать файлы