Самолеты: Огонь и вода / Planes: Fire and Rescue( Роберт Ганнавей) (2014 г., мультфильм, комедия, приключения, семейный,HDRip)(Чистый звук)

Ответить на тему
 

Страх ®

Стаж: 4 года 2 месяца

Сообщений: 1131

Симпатии: 448

Самолеты: Огонь и вода / Planes: Fire and Rescue -Год выпуска: 2014 Страна: США Жанр: мультфильм, комедия, приключения, семейный Продолжительность: 01:23:38
Перевод: Профессиональный (полное дублирование) (Чистый Звук)
-Режиссер: Роберт Ганнавей Роли дублировали: Константин Крюков, Сергей Чихачев, Анна Ардова, Даниил Эльдаров-Описание:Самолетик Дасти, который стал уже легендой воздушных гонок, вскоре узнает, что его двигатель сильно повреждён, и он никогда не может больше участвовать в скоростных воздушных гонках. Дасти ищет себе новое занятие и знакомится с мужественной пожарно-спасательной командой, которой руководит ветеран авиации вертолёт по имени Ренждер. Узнав, насколько тяжела и опасна работа пожарной авиации, Дасти поймёт, что такое настоящий героизм и самоотдача, и сам захочет стать спасателем.- -Качество: HDRip [Рип с BDRip 720p]
Формат: AVI Видео кодек: XviD Аудио кодек: AC3
Видео: Xvid 720x304 23.976fps 1946kbps Аудио: Dolby AC3 48000Hz stereo 384kbps
-

Мedia Info

General
Complete name : D:\Tracker\Movie Files\Planes_2014_D_HDRip.avi
Format : AVI
Format/Info : Audio Video Interleave
File size : 1.37 GiB
Duration : 1h 23mn
Overall bit rate : 2 340 Kbps
Writing application : VirtualDubMod 1.5.10.2 (build 2540/release)
Writing library : VirtualDubMod build 2540/release
Video
ID : 0
Format : MPEG-4 Visual
Format profile : Advanced [email protected]
Format settings, BVOP : Yes
Format settings, QPel : No
Format settings, GMC : No warppoints
Format settings, Matrix : Default (MPEG)
Codec ID : XVID
Codec ID/Hint : XviD
Duration : 1h 23mn
Bit rate : 1 947 Kbps
Width : 720 pixels
Height : 304 pixels
Display aspect ratio : 2.35:1
Frame rate : 23.976 fps
Color space : YUV
Chroma subsampling : 4:2:0
Bit depth : 8 bits
Scan type : Progressive
Compression mode : Lossy
Bits/(Pixel*Frame) : 0.371
Stream size : 1.14 GiB (83%)
Writing library : XviD 1.2.1 (UTC 2008-12-04)
Audio
ID : 1
Format : AC-3
Format/Info : Audio Coding 3
Mode extension : CM (complete main)
Format settings, Endianness : Big
Codec ID : 2000
Duration : 1h 23mn
Bit rate mode : Constant
Bit rate : 384 Kbps
Channel(s) : 2 channels
Channel positions : Front: L R
Sampling rate : 48.0 KHz
Bit depth : 16 bits
Compression mode : Lossy
Stream size : 230 MiB (16%)
Alignment : Split accross interleaves
Interleave, duration : 42 ms (1.00 video frame)
Interleave, preload duration : 500 ms

Скриншоты

Wow Скриншоты



Последний раз редактировалось: Страх (2014-10-23 20:49), всего редактировалось 1 раз

Создавать темы 23-Окт-2014 19:12

[Профиль]  [ЛС] 

Страх ®

Стаж: 4 года 2 месяца

Сообщений: 1131

Симпатии: 448

Классное продолжение, мне понравилось.

Создавать темы 23-Окт-2014 19:51

[Профиль]  [ЛС] 
Показать сообщения:    
Ответить на тему

Текущее время: 17-Дек 20:36

Часовой пояс: UTC + 5



Вы не можете начинать темы
Вы не можете отвечать на сообщения
Вы не можете редактировать свои сообщения
Вы не можете удалять свои сообщения
Вы не можете голосовать в опросах
Вы не можете прикреплять файлы к сообщениям
Вы не можете скачивать файлы