Формула 1. Сезон 2004 г. Гонки (18 этапов из 18) ["RTL", "ITV", "Premiere", "Россия", "РТР-Спорт", "SF2"] SATRip, TVRip

Ответить на тему
 

M.J. ®

Стаж: 4 года 3 месяца

Сообщений: 25

Симпатии: 8

Формула 1. Сезон 2004 г.
-Год выпуска: 2004
Вид спорта: Формула 1
Участники: Пилоты королевских гонок
Продолжительность: 18 этапов
Комментарий: Профессиональный
Язык комментариев: русский
Описание: Все этапы Чемпионата Мира в классе автогонок Формула-1 2004-го года
Качество: SATRip
Канал: RTL, ITV, Premiere, Россия, РТР-Спорт, SF2-

Этап 1. 07.03.2004. Гран При Австралии, Мельбурн

-File size: 2104.87 MBytes (2 207 111 570 Bytes)
Duration: 01:53:22.104
Overall bitrate: 2596 Kbps
Title: 2004 Foster's Australian Grand Prix round 1 ru
Video: 704x576 (4:3) @ 768x576, 50.000 fps, AVC, ~2352 Kbps, 0.116 bits/pixel
Audio: Russian, 48.0 KHz, AC3, 2 ch, 192 Kbps-

Media Info


General
Unique ID : 198479191043560320172043676939232925889 (0x9551B3A506C9A13CAB98D5E3870AD8C1)
Format : Matroska
Format version : Version 4 / Version 2
File size : 2.06 GiB
Duration : 1h 53mn
Overall bit rate : 2 596 Kbps
Movie name : 2004 Foster's Australian Grand Prix round 1 ru
Encoded date : UTC 2014-10-15 16:24:44
Writing application : mkvmerge v7.2.0 ('On Every Street') 64bit built on Sep 13 2014 15:52:10
Writing library : libebml v1.3.0 + libmatroska v1.4.1
DURATION : 01:53:22.080000000
NUMBER_OF_FRAMES : 212565
NUMBER_OF_BYTES : 163249920
_STATISTICS_WRITING_APP : mkvmerge v7.2.0 ('On Every Street') 64bit built on Sep 13 2014 15:52:10
_STATISTICS_WRITING_DATE_UTC : 2014-10-15 16:24:44
_STATISTICS_TAGS : BPS DURATION NUMBER_OF_FRAMES NUMBER_OF_BYTES
Video
ID : 1
Format : AVC
Format/Info : Advanced Video Codec
Format profile : [email protected]
Format settings, CABAC : Yes
Format settings, ReFrames : 4 frames
Codec ID : V_MPEG4/ISO/AVC
Duration : 1h 53mn
Bit rate : 2 352 Kbps
Width : 704 pixels
Height : 576 pixels
Display aspect ratio : 4:3
Frame rate mode : Constant
Frame rate : 50.000 fps
Standard : PAL
Color space : YUV
Chroma subsampling : 4:2:0
Bit depth : 8 bits
Scan type : Progressive
Bits/(Pixel*Frame) : 0.116
Stream size : 1.86 GiB (91%)
Language : English
Default : Yes
Forced : No
DURATION : 01:53:22.000000000
NUMBER_OF_FRAMES : 340100
NUMBER_OF_BYTES : 2041177888
_STATISTICS_WRITING_APP : mkvmerge v7.2.0 ('On Every Street') 64bit built on Sep 13 2014 15:52:10
_STATISTICS_WRITING_DATE_UTC : 2014-10-15 16:24:44
_STATISTICS_TAGS : BPS DURATION NUMBER_OF_FRAMES NUMBER_OF_BYTES
Audio
ID : 2
Format : AC-3
Format/Info : Audio Coding 3
Mode extension : CM (complete main)
Format settings, Endianness : Big
Codec ID : A_AC3
Duration : 1h 53mn
Bit rate mode : Constant
Bit rate : 192 Kbps
Channel(s) : 2 channels
Channel positions : Front: L R
Sampling rate : 48.0 KHz
Bit depth : 16 bits
Compression mode : Lossy
Delay relative to video : 24ms
Stream size : 156 MiB (7%)
Language : Russian
Default : Yes
Forced : No
-

Этап 2. 21.03.2004. Гран При Малайзии, Сепанг

-File size: 3120.68 MBytes (3 272 265 522 Bytes)
Duration: 02:09:22.693
Overall bitrate: 3372 Kbps
Title: 2004 Petronas Malaysian Grand Prix round 2 ru
Video: 720x576 (4:3) @ 768x576, 50.000 fps, AVC, ~3249 Kbps, 0.157 bits/pixel
Audio: Russian, 24.0 KHz, MP3, 2 ch, 56.0 Kbps-

Media Info


General
Unique ID : 207962921100876301223627819848870408683 (0x9C7433A3129BD2C3AE17ED2AE11831EB)
Format : Matroska
Format version : Version 4 / Version 2
File size : 3.05 GiB
Duration : 2h 9mn
Overall bit rate : 3 372 Kbps
Movie name : 2004 Petronas Malaysian Grand Prix round 2 ru
Encoded date : UTC 2014-10-15 16:28:06
Writing application : mkvmerge v7.2.0 ('On Every Street') 64bit built on Sep 13 2014 15:52:10
Writing library : libebml v1.3.0 + libmatroska v1.4.1
DURATION : 02:09:22.680000000
NUMBER_OF_FRAMES : 323445
NUMBER_OF_BYTES : 54338760
_STATISTICS_WRITING_APP : mkvmerge v7.2.0 ('On Every Street') 64bit built on Sep 13 2014 15:52:10
_STATISTICS_WRITING_DATE_UTC : 2014-10-15 16:28:06
_STATISTICS_TAGS : BPS DURATION NUMBER_OF_FRAMES NUMBER_OF_BYTES
Video
ID : 1
Format : AVC
Format/Info : Advanced Video Codec
Format profile : [email protected]
Format settings, CABAC : Yes
Format settings, ReFrames : 4 frames
Codec ID : V_MPEG4/ISO/AVC
Duration : 2h 9mn
Bit rate : 3 249 Kbps
Width : 720 pixels
Height : 576 pixels
Display aspect ratio : 4:3
Original display aspect ratio : 5:4
Frame rate mode : Constant
Frame rate : 50.000 fps
Standard : PAL
Color space : YUV
Chroma subsampling : 4:2:0
Bit depth : 8 bits
Scan type : Progressive
Bits/(Pixel*Frame) : 0.157
Stream size : 2.94 GiB (96%)
Language : English
Default : Yes
Forced : No
Audio
ID : 2
Format : MPEG Audio
Format version : Version 2
Format profile : Layer 3
Mode : Joint stereo
Mode extension : Intensity Stereo + MS Stereo
Codec ID : A_MPEG/L3
Codec ID/Hint : MP3
Duration : 2h 9mn
Bit rate mode : Constant
Bit rate : 56.0 Kbps
Channel(s) : 2 channels
Sampling rate : 24.0 KHz
Compression mode : Lossy
Stream size : 51.8 MiB (2%)
Language : Russian
Default : Yes
Forced : No
-

Этап 3. 04.04.2004. Гран При Бахрейна, Сахир

-File size: 3345.80 MBytes (3 508 321 434 Bytes)
Duration: 01:55:08.472
Overall bitrate: 4063 Kbps
Title: 2004 Gulf Air Bahrain Grand Prix round 3 ru
Video: 720x576 (4:3) @ 768x576, 50.000 fps, AVC, ~3926 Kbps, 0.189 bits/pixel
Audio: Russian, 24.0 KHz, MP3, 2 ch, 56.0 Kbps-

Media Info


General
Unique ID : 218254969151818947866376565943509620564 (0xA43260C88B9FC19EBE0E79DF558E9754)
Format : Matroska
Format version : Version 4 / Version 2
File size : 3.27 GiB
Duration : 1h 55mn
Overall bit rate : 4 063 Kbps
Movie name : 2004 Gulf Air Bahrain Grand Prix round 3 ru
Encoded date : UTC 2014-10-15 16:30:57
Writing application : mkvmerge v7.2.0 ('On Every Street') 64bit built on Sep 13 2014 15:52:10
Writing library : libebml v1.3.0 + libmatroska v1.4.1
DURATION : 01:55:08.472000000
NUMBER_OF_FRAMES : 287853
NUMBER_OF_BYTES : 48359304
_STATISTICS_WRITING_APP : mkvmerge v7.2.0 ('On Every Street') 64bit built on Sep 13 2014 15:52:10
_STATISTICS_WRITING_DATE_UTC : 2014-10-15 16:30:57
_STATISTICS_TAGS : BPS DURATION NUMBER_OF_FRAMES NUMBER_OF_BYTES
Video
ID : 1
Format : AVC
Format/Info : Advanced Video Codec
Format profile : [email protected]
Format settings, CABAC : Yes
Format settings, ReFrames : 4 frames
Codec ID : V_MPEG4/ISO/AVC
Duration : 1h 55mn
Bit rate : 3 926 Kbps
Width : 720 pixels
Height : 576 pixels
Display aspect ratio : 4:3
Original display aspect ratio : 5:4
Frame rate mode : Constant
Frame rate : 50.000 fps
Standard : PAL
Color space : YUV
Chroma subsampling : 4:2:0
Bit depth : 8 bits
Scan type : Progressive
Bits/(Pixel*Frame) : 0.189
Stream size : 3.16 GiB (97%)
Language : English
Default : Yes
Forced : No
Audio
ID : 2
Format : MPEG Audio
Format version : Version 2
Format profile : Layer 3
Mode : Joint stereo
Mode extension : Intensity Stereo + MS Stereo
Codec ID : A_MPEG/L3
Codec ID/Hint : MP3
Duration : 1h 55mn
Bit rate mode : Constant
Bit rate : 56.0 Kbps
Channel(s) : 2 channels
Sampling rate : 24.0 KHz
Compression mode : Lossy
Stream size : 46.1 MiB (1%)
Language : Russian
Default : Yes
Forced : No
-

Этап 4. 25.04.2004. Гран При Сан-Марино, Имола

-File size: 1929.82 MBytes (2 023 566 630 Bytes)
Duration: 01:46:01.024
Overall bitrate: 2545 Kbps
Title: 2004 24° Gran Premio Forster's di San Marino round 4 ru
Video: 720x568 (4:3) @ 768x568, 50.000 fps, AVC, ~2334 Kbps, 0.114 bits/pixel
Audio: Russian, 48.0 KHz, AC3, 2 ch, 160 Kbps-

Media Info


General
Unique ID : 175463655872268593611490219823192478295 (0x840112267A00C966B492A810B78A1257)
Format : Matroska
Format version : Version 4 / Version 2
File size : 1.88 GiB
Duration : 1h 46mn
Overall bit rate : 2 545 Kbps
Movie name : 2004 24° Gran Premio Forster's di San Marino round 4 ru
Encoded date : UTC 2013-07-04 16:09:09
Writing application : mkvmerge v6.3.0 ('You can't stop me!') built on Jun 28 2013 20:09:41
Writing library : libebml v1.3.0 + libmatroska v1.4.0
Video
ID : 1
Format : AVC
Format/Info : Advanced Video Codec
Format profile : [email protected]
Format settings, CABAC : Yes
Format settings, ReFrames : 5 frames
Codec ID : V_MPEG4/ISO/AVC
Duration : 1h 46mn
Bit rate : 2 334 Kbps
Width : 720 pixels
Height : 568 pixels
Display aspect ratio : 4:3
Frame rate mode : Constant
Frame rate : 50.000 fps
Color space : YUV
Chroma subsampling : 4:2:0
Bit depth : 8 bits
Scan type : Progressive
Bits/(Pixel*Frame) : 0.114
Stream size : 1.73 GiB (92%)
Language : English
Default : Yes
Forced : No
Audio
ID : 2
Format : AC-3
Format/Info : Audio Coding 3
Mode extension : CM (complete main)
Format settings, Endianness : Big
Codec ID : A_AC3
Duration : 1h 46mn
Bit rate mode : Constant
Bit rate : 160 Kbps
Channel(s) : 2 channels
Channel positions : Front: L R
Sampling rate : 48.0 KHz
Bit depth : 16 bits
Compression mode : Lossy
Stream size : 121 MiB (6%)
Language : Russian
Default : Yes
Forced : No
-

Этап 5. 09.05.2004. Гран При Испании, Каталунья-Монмело

-Title: 2004 48° Gran Premio Marlboro de Espana round 5 ru
FileSize: 1110.87 Mb ( 1 164 830 720 bytes )
Play length: 01:45:58.687 (158968 frames)
Video: 686x548 (1.25:1), 25 fps, XviD MPEG-4 ~1399 kbps avg, 0.15 bit/pixel
Audio: 24 kHz, MPEG Layer 3, 2 ch, ~56.00 kbps avg-

Media Info


General
Format : AVI
Format/Info : Audio Video Interleave
File size : 1.08 GiB
Duration : 1h 45mn
Overall bit rate : 1 465 Kbps
Movie name : 2004 48° Gran Premio Marlboro de Espana round 5 ru
Writing application : VirtualDubMod 1.5.10.3 (build 2550/release)
Writing library : VirtualDubMod build 2550/release
Video
ID : 0
Format : MPEG-4 Visual
Format profile : Advanced [email protected]
Format settings, BVOP : 1
Format settings, QPel : No
Format settings, GMC : No warppoints
Format settings, Matrix : Default (H.263)
Muxing mode : Packed bitstream
Codec ID : XVID
Codec ID/Hint : XviD
Duration : 1h 45mn
Bit rate : 1 400 Kbps
Width : 686 pixels
Height : 548 pixels
Display aspect ratio : 5:4
Frame rate : 25.000 fps
Color space : YUV
Chroma subsampling : 4:2:0
Bit depth : 8 bits
Scan type : Progressive
Compression mode : Lossy
Bits/(Pixel*Frame) : 0.149
Stream size : 1.04 GiB (96%)
Writing library : XviD 1.2.0SMP (UTC 2006-01-08)
Audio
ID : 1
Format : MPEG Audio
Format version : Version 2
Format profile : Layer 3
Mode : Joint stereo
Mode extension : Intensity Stereo + MS Stereo
Codec ID : 55
Codec ID/Hint : MP3
Duration : 1h 45mn
Bit rate mode : Constant
Bit rate : 56.0 Kbps
Channel(s) : 2 channels
Sampling rate : 24.0 KHz
Compression mode : Lossy
Stream size : 42.4 MiB (4%)
Alignment : Split accross interleaves
Interleave, duration : 40 ms (1.00 video frame)
Interleave, preload duration : 500 ms
-

Этап 6. 23.05.2004. Гран При Монако, Монте-Карло

-File size: 3742.87 MBytes (3 924 680 608 Bytes)
Duration: 02:09:11.176
Overall bitrate: 4051 Kbps
Title: 2004 62e Grand Prix de Monaco round 6 ru
Video: 720x576 (4:3) @ 768x576, 50.000 fps, AVC, ~3778 Kbps, 0.182 bits/pixel
Audio: Russian, 48.0 KHz, AC3, 2 ch, 192 Kbps-

Media Info


General
Unique ID : 226694759405420496957373265190122385115 (0xAA8BD291D090F55F9AB978A57B176EDB)
Format : Matroska
Format version : Version 4 / Version 2
File size : 3.66 GiB
Duration : 2h 9mn
Overall bit rate : 4 051 Kbps
Movie name : 2004 62e Grand Prix de Monaco round 6 ru
Encoded date : UTC 2013-07-10 14:30:58
Writing application : mkvmerge v6.3.0 ('You can't stop me!') built on Jul 3 2013 19:24:42
Writing library : libebml v1.3.0 + libmatroska v1.4.1
Video
ID : 1
Format : AVC
Format/Info : Advanced Video Codec
Format profile : [email protected]
Format settings, CABAC : Yes
Format settings, ReFrames : 5 frames
Codec ID : V_MPEG4/ISO/AVC
Duration : 2h 9mn
Bit rate : 3 778 Kbps
Width : 720 pixels
Height : 576 pixels
Display aspect ratio : 4:3
Frame rate mode : Constant
Frame rate : 50.000 fps
Standard : PAL
Color space : YUV
Chroma subsampling : 4:2:0
Bit depth : 8 bits
Scan type : Progressive
Bits/(Pixel*Frame) : 0.182
Stream size : 3.41 GiB (93%)
Language : English
Default : Yes
Forced : No
Audio
ID : 2
Format : AC-3
Format/Info : Audio Coding 3
Mode extension : CM (complete main)
Format settings, Endianness : Big
Codec ID : A_AC3
Duration : 2h 9mn
Bit rate mode : Constant
Bit rate : 192 Kbps
Channel(s) : 2 channels
Channel positions : Front: L R
Sampling rate : 48.0 KHz
Bit depth : 16 bits
Compression mode : Lossy
Delay relative to video : 8ms
Stream size : 177 MiB (5%)
Language : Russian
Default : Yes
Forced : No
-

Этап 7. 30.05.2004. Гран При Европы, Нюрбургринг

-File size: 3034.26 MBytes (3 181 648 080 Bytes)
Duration: 01:58:39.640
Overall bitrate: 3575 Kbps
Title: 2004 Allianz Grand Prix of Europe round 7 ru
Video: 720x576 (4:3) @ 768x576, 25.000 fps, AVC
Audio: Russian, 48.0 KHz, AAC LC, 2 ch-

Media Info


General
Unique ID : 178985588020565555043704549137589696561 (0x86A75ECFCC77449AB59421B768837831)
Format : Matroska
Format version : Version 4 / Version 2
File size : 2.96 GiB
Duration : 1h 58mn
Overall bit rate mode : Variable
Overall bit rate : 3 575 Kbps
Movie name : 2004 Allianz Grand Prix of Europe round 7 ru
Encoded date : UTC 2014-10-15 16:35:41
Writing application : mkvmerge v7.2.0 ('On Every Street') 64bit built on Sep 13 2014 15:52:10
Writing library : libebml v1.3.0 + libmatroska v1.4.1
DURATION : 01:58:39.613000000
NUMBER_OF_FRAMES : 333730
NUMBER_OF_BYTES : 113913172
_STATISTICS_WRITING_APP : mkvmerge v7.2.0 ('On Every Street') 64bit built on Sep 13 2014 15:52:10
_STATISTICS_WRITING_DATE_UTC : 2014-10-15 16:35:41
_STATISTICS_TAGS : BPS DURATION NUMBER_OF_FRAMES NUMBER_OF_BYTES
Video
ID : 1
Format : AVC
Format/Info : Advanced Video Codec
Format profile : [email protected]
Format settings, CABAC : Yes
Format settings, ReFrames : 2 frames
Muxing mode : Container [email protected]
Codec ID : V_MPEG4/ISO/AVC
Duration : 1h 58mn
Bit rate mode : Variable
Maximum bit rate : 3 600 Kbps
Width : 720 pixels
Height : 576 pixels
Display aspect ratio : 4:3
Original display aspect ratio : 4:3
Frame rate mode : Constant
Frame rate : 25.000 fps
Standard : PAL
Color space : YUV
Chroma subsampling : 4:2:0
Bit depth : 8 bits
Scan type : Progressive
Language : English
Default : Yes
Forced : No
Audio
ID : 2
Format : AAC
Format/Info : Advanced Audio Codec
Format profile : LC
Codec ID : A_AAC
Duration : 1h 58mn
Channel(s) : 2 channels
Channel positions : Front: L R
Sampling rate : 48.0 KHz
Compression mode : Lossy
Language : Russian
Default : Yes
Forced : No
-

Этап 8. 13.06.2004. Гран При Канады, Монреаль

-File size: 3138.35 MBytes (3 290 800 835 Bytes)
Duration: 02:02:18.840
Overall bitrate: 3587 Kbps
Title: 2004 Grand Prix Air Canada round 8 ru
Video: 720x576 (4:3) @ 768x576, 25.000 fps, AVC
Audio: Russian, 48.0 KHz, AAC LC, 2 ch-

Media Info


General
Unique ID : 198463586712853456203885530253247164570 (0x954EB24AAEF10BCB9A8736D854F4B09A)
Format : Matroska
Format version : Version 4 / Version 2
File size : 3.06 GiB
Duration : 2h 2mn
Overall bit rate mode : Variable
Overall bit rate : 3 587 Kbps
Movie name : 2004 Grand Prix Air Canada round 8 ru
Encoded date : UTC 2014-10-15 16:37:56
Writing application : mkvmerge v7.2.0 ('On Every Street') 64bit built on Sep 13 2014 15:52:10
Writing library : libebml v1.3.0 + libmatroska v1.4.1
DURATION : 02:02:18.794000000
NUMBER_OF_FRAMES : 344006
NUMBER_OF_BYTES : 117420257
_STATISTICS_WRITING_APP : mkvmerge v7.2.0 ('On Every Street') 64bit built on Sep 13 2014 15:52:10
_STATISTICS_WRITING_DATE_UTC : 2014-10-15 16:37:56
_STATISTICS_TAGS : BPS DURATION NUMBER_OF_FRAMES NUMBER_OF_BYTES
Video
ID : 1
Format : AVC
Format/Info : Advanced Video Codec
Format profile : [email protected]
Format settings, CABAC : Yes
Format settings, ReFrames : 2 frames
Format settings, GOP : M=2, N=13
Codec ID : V_MPEG4/ISO/AVC
Duration : 2h 2mn
Bit rate mode : Variable
Maximum bit rate : 3 600 Kbps
Width : 720 pixels
Height : 576 pixels
Display aspect ratio : 4:3
Original display aspect ratio : 4:3
Frame rate mode : Constant
Frame rate : 25.000 fps
Standard : PAL
Color space : YUV
Chroma subsampling : 4:2:0
Bit depth : 8 bits
Scan type : Progressive
Language : English
Default : Yes
Forced : No
Audio
ID : 2
Format : AAC
Format/Info : Advanced Audio Codec
Format profile : LC
Codec ID : A_AAC
Duration : 2h 2mn
Channel(s) : 2 channels
Channel positions : Front: L R
Sampling rate : 48.0 KHz
Compression mode : Lossy
Delay relative to video : 19ms
Language : Russian
Default : Yes
Forced : No
-

Этап 9. 20.06.2004. Гран При США, Индианаполис

-File size: 1849.85 MBytes (1 939 706 592 Bytes)
Duration: 02:04:15.720
Overall bitrate: 2081 Kbps
Title: 2004 United States Grand Prix round 9 ru
Video: 720x576 (4:3) @ 768x576, 25.000 fps, AVC
Audio: Russian, 48.0 KHz, AAC LC, 2 ch-

Media Info


General
Unique ID : 188457261269913002946245220565402901008 (0x8DC78C5B88A09DB0A3E832229A3DDA10)
Format : Matroska
Format version : Version 4 / Version 2
File size : 1.81 GiB
Duration : 2h 4mn
Overall bit rate : 2 081 Kbps
Movie name : 2004 United States Grand Prix round 9 ru
Encoded date : UTC 2014-10-15 16:40:15
Writing application : mkvmerge v7.2.0 ('On Every Street') 64bit built on Sep 13 2014 15:52:10
Writing library : libebml v1.3.0 + libmatroska v1.4.1
DURATION : 02:04:15.680000000
NUMBER_OF_FRAMES : 349485
NUMBER_OF_BYTES : 119225388
_STATISTICS_WRITING_APP : mkvmerge v7.2.0 ('On Every Street') 64bit built on Sep 13 2014 15:52:10
_STATISTICS_WRITING_DATE_UTC : 2014-10-15 16:40:15
_STATISTICS_TAGS : BPS DURATION NUMBER_OF_FRAMES NUMBER_OF_BYTES
Video
ID : 1
Format : AVC
Format/Info : Advanced Video Codec
Format profile : [email protected]
Format settings, CABAC : Yes
Format settings, ReFrames : 3 frames
Codec ID : V_MPEG4/ISO/AVC
Duration : 2h 4mn
Nominal bit rate : 1 951 Kbps
Width : 720 pixels
Height : 576 pixels
Display aspect ratio : 4:3
Original display aspect ratio : 5:4
Frame rate mode : Constant
Frame rate : 25.000 fps
Standard : PAL
Color space : YUV
Chroma subsampling : 4:2:0
Bit depth : 8 bits
Scan type : Progressive
Bits/(Pixel*Frame) : 0.188
Writing library : x264 core 132 r2310 76a5c3a
Encoding settings : cabac=1 / ref=2 / deblock=1:0:0 / analyse=0x3:0x113 / me=hex / subme=7 / psy=0 / mixed_ref=1 / me_range=16 / chroma_me=1 / trellis=1 / 8x8dct=1 / cqm=0 / deadzone=21,11 / fast_pskip=1 / chroma_qp_offset=0 / threads=6 / lookahead_threads=1 / sliced_threads=0 / nr=0 / decimate=1 / interlaced=0 / bluray_compat=0 / constrained_intra=0 / bframes=3 / b_pyramid=1 / b_adapt=1 / b_bias=0 / direct=1 / weightb=1 / open_gop=0 / weightp=2 / keyint=250 / keyint_min=25 / scenecut=40 / intra_refresh=0 / rc_lookahead=40 / rc=2pass / mbtree=1 / bitrate=1951 / ratetol=1.0 / qcomp=0.60 / qpmin=0 / qpmax=69 / qpstep=4 / cplxblur=20.0 / qblur=0.5 / ip_ratio=1.40 / aq=1:1.00
Language : English
Default : Yes
Forced : No
Audio
ID : 2
Format : AAC
Format/Info : Advanced Audio Codec
Format profile : LC
Codec ID : A_AAC
Duration : 2h 4mn
Channel(s) : 2 channels
Channel positions : Front: L R
Sampling rate : 48.0 KHz
Compression mode : Lossy
Delay relative to video : 9ms
Language : Russian
Default : Yes
Forced : No
-

Этап 10. 04.07.2004. Гран При Франции, Маньи-Кур

-File size: 1846.60 MBytes (1 936 299 279 Bytes)
Duration: 01:57:26.494
Overall bitrate: 2198 Kbps
Title: 2004 90e Mobil 1 Grand Prix de France round 10 ru
Video: 720x576 (4:3) @ 768x576, 25.000 fps, AVC
Audio: Russian, 48.0 KHz, AAC LC, 2 ch-

Media Info


General
Unique ID : 207698636915428200483210643483409483659 (0x9C414D6BAF34C90DAF44B2D1F58B878B)
Format : Matroska
Format version : Version 4 / Version 2
File size : 1.80 GiB
Duration : 1h 57mn
Overall bit rate : 2 198 Kbps
Movie name : 2004 90e Mobil 1 Grand Prix de France round 10 ru
Encoded date : UTC 2014-10-15 16:41:34
Writing application : mkvmerge v7.2.0 ('On Every Street') 64bit built on Sep 13 2014 15:52:10
Writing library : libebml v1.3.0 + libmatroska v1.4.1
DURATION : 01:57:26.485000000
NUMBER_OF_FRAMES : 330304
NUMBER_OF_BYTES : 112739677
_STATISTICS_WRITING_APP : mkvmerge v7.2.0 ('On Every Street') 64bit built on Sep 13 2014 15:52:10
_STATISTICS_WRITING_DATE_UTC : 2014-10-15 16:41:34
_STATISTICS_TAGS : BPS DURATION NUMBER_OF_FRAMES NUMBER_OF_BYTES
Video
ID : 1
Format : AVC
Format/Info : Advanced Video Codec
Format profile : [email protected]
Format settings, CABAC : Yes
Format settings, ReFrames : 3 frames
Codec ID : V_MPEG4/ISO/AVC
Duration : 1h 57mn
Nominal bit rate : 2 068 Kbps
Width : 720 pixels
Height : 576 pixels
Display aspect ratio : 4:3
Original display aspect ratio : 5:4
Frame rate mode : Constant
Frame rate : 25.000 fps
Standard : PAL
Color space : YUV
Chroma subsampling : 4:2:0
Bit depth : 8 bits
Scan type : Progressive
Bits/(Pixel*Frame) : 0.199
Writing library : x264 core 132 r2310 76a5c3a
Encoding settings : cabac=1 / ref=2 / deblock=1:0:0 / analyse=0x3:0x113 / me=hex / subme=7 / psy=0 / mixed_ref=1 / me_range=16 / chroma_me=1 / trellis=1 / 8x8dct=1 / cqm=0 / deadzone=21,11 / fast_pskip=1 / chroma_qp_offset=0 / threads=6 / lookahead_threads=1 / sliced_threads=0 / nr=0 / decimate=1 / interlaced=0 / bluray_compat=0 / constrained_intra=0 / bframes=3 / b_pyramid=1 / b_adapt=1 / b_bias=0 / direct=1 / weightb=1 / open_gop=0 / weightp=2 / keyint=250 / keyint_min=25 / scenecut=40 / intra_refresh=0 / rc_lookahead=40 / rc=2pass / mbtree=1 / bitrate=2068 / ratetol=1.0 / qcomp=0.60 / qpmin=0 / qpmax=69 / qpstep=4 / cplxblur=20.0 / qblur=0.5 / ip_ratio=1.40 / aq=1:1.00
Language : English
Default : Yes
Forced : No
Audio
ID : 2
Format : AAC
Format/Info : Advanced Audio Codec
Format profile : LC
Codec ID : A_AAC
Duration : 1h 57mn
Channel(s) : 2 channels
Channel positions : Front: L R
Sampling rate : 48.0 KHz
Compression mode : Lossy
Delay relative to video : 9ms
Language : Russian
Default : Yes
Forced : No
-

Этап 11. 11.07.2004. Гран При Великобритании, Силверстоун

-Title: 2004 Foster's British Grand Prix round 11 ru
FileSize: 1109.61 Mb ( 1 163 505 664 bytes )
Play length: 01:45:21.640 (158041 frames)
Subtitles: Not Present
Video: 686x548 (1.25:1), 25 fps, XviD MPEG-4 ~1406 kbps avg, 0.15 bit/pixel
Audio: 24 kHz, MPEG Layer 3, 2 ch, ~56.00 kbps avg-

Media Info


General
Format : AVI
Format/Info : Audio Video Interleave
File size : 1.08 GiB
Duration : 1h 45mn
Overall bit rate : 1 472 Kbps
Movie name : 2004 Foster's British Grand Prix round 11 ru
Writing application : VirtualDubMod 1.5.10.3 (build 2550/release)
Writing library : VirtualDubMod build 2550/release
Video
ID : 0
Format : MPEG-4 Visual
Format profile : Advanced [email protected]
Format settings, BVOP : 1
Format settings, QPel : No
Format settings, GMC : No warppoints
Format settings, Matrix : Default (H.263)
Muxing mode : Packed bitstream
Codec ID : XVID
Codec ID/Hint : XviD
Duration : 1h 45mn
Bit rate : 1 407 Kbps
Width : 686 pixels
Height : 548 pixels
Display aspect ratio : 5:4
Frame rate : 25.000 fps
Color space : YUV
Chroma subsampling : 4:2:0
Bit depth : 8 bits
Scan type : Progressive
Compression mode : Lossy
Bits/(Pixel*Frame) : 0.150
Stream size : 1.04 GiB (96%)
Writing library : XviD 1.2.0SMP (UTC 2006-01-08)
Audio
ID : 1
Format : MPEG Audio
Format version : Version 2
Format profile : Layer 3
Mode : Joint stereo
Mode extension : Intensity Stereo + MS Stereo
Codec ID : 55
Codec ID/Hint : MP3
Duration : 1h 45mn
Bit rate mode : Constant
Bit rate : 56.0 Kbps
Channel(s) : 2 channels
Sampling rate : 24.0 KHz
Compression mode : Lossy
Stream size : 42.2 MiB (4%)
Alignment : Split accross interleaves
Interleave, duration : 40 ms (1.00 video frame)
Interleave, preload duration : 500 ms
-

Этап 12. 25.07.2004. Гран При Германии, Хокенхайм

-Title: 2004 Grosser Mobil 1 Preis von Deutschland round 12 ru
FileSize: 1111.52 Mb ( 1 165 514 752 bytes )
Play length: 01:46:40.520 (160013 frames)
Subtitles: Not Present
Video: 686x548 (1.25:1), 25 fps, XviD MPEG-4 ~1390 kbps avg, 0.15 bit/pixel
Audio: 24 kHz, MPEG Layer 3, 2 ch, ~56.00 kbps avg-

Media Info


General
Format : AVI
Format/Info : Audio Video Interleave
File size : 1.09 GiB
Duration : 1h 46mn
Overall bit rate : 1 457 Kbps
Movie name : 2004 Grosser Mobil 1 Preis von Deutschland round 12 ru
Writing application : VirtualDubMod 1.5.10.3 (build 2550/release)
Writing library : VirtualDubMod build 2550/release
Video
ID : 0
Format : MPEG-4 Visual
Format profile : Advanced [email protected]
Format settings, BVOP : 1
Format settings, QPel : No
Format settings, GMC : No warppoints
Format settings, Matrix : Default (H.263)
Muxing mode : Packed bitstream
Codec ID : XVID
Codec ID/Hint : XviD
Duration : 1h 46mn
Bit rate : 1 391 Kbps
Width : 686 pixels
Height : 548 pixels
Display aspect ratio : 5:4
Frame rate : 25.000 fps
Color space : YUV
Chroma subsampling : 4:2:0
Bit depth : 8 bits
Scan type : Progressive
Compression mode : Lossy
Bits/(Pixel*Frame) : 0.148
Stream size : 1.04 GiB (95%)
Writing library : XviD 1.2.0SMP (UTC 2006-01-08)
Audio
ID : 1
Format : MPEG Audio
Format version : Version 2
Format profile : Layer 3
Mode : Joint stereo
Mode extension : Intensity Stereo + MS Stereo
Codec ID : 55
Codec ID/Hint : MP3
Duration : 1h 46mn
Bit rate mode : Constant
Bit rate : 56.0 Kbps
Channel(s) : 2 channels
Sampling rate : 24.0 KHz
Compression mode : Lossy
Stream size : 42.7 MiB (4%)
Alignment : Split accross interleaves
Interleave, duration : 40 ms (1.00 video frame)
Interleave, preload duration : 500 ms
-

Этап 13. 15.08.2004. Гран При Венгрии, Хунгароринг

-Title: 2004 Marlboro Magyar Nagydij round 13 ru
FileSize: 1109.82 Mb ( 1 163 726 848 bytes )
Play length: 01:51:30.446 (167262 frames)
Subtitles: Not Present
Video: 686x548 (1.25:1), 25 fps, XviD MPEG-4 ~1325 kbps avg, 0.14 bit/pixel
Audio: 24 kHz, MPEG Layer 3, 2 ch, ~56.00 kbps avg-

Media Info


General
Format : AVI
Format/Info : Audio Video Interleave
File size : 1.08 GiB
Duration : 1h 51mn
Overall bit rate : 1 392 Kbps
Movie name : 2004 Marlboro Magyar Nagydij round 13 ru
Writing application : VirtualDubMod 1.5.10.3 (build 2550/release)
Writing library : VirtualDubMod build 2550/release
Video
ID : 0
Format : MPEG-4 Visual
Format profile : Advanced [email protected]
Format settings, BVOP : 1
Format settings, QPel : No
Format settings, GMC : No warppoints
Format settings, Matrix : Default (H.263)
Muxing mode : Packed bitstream
Codec ID : XVID
Codec ID/Hint : XviD
Duration : 1h 51mn
Bit rate : 1 326 Kbps
Width : 686 pixels
Height : 548 pixels
Display aspect ratio : 5:4
Frame rate : 25.000 fps
Color space : YUV
Chroma subsampling : 4:2:0
Bit depth : 8 bits
Scan type : Progressive
Compression mode : Lossy
Bits/(Pixel*Frame) : 0.141
Stream size : 1.03 GiB (95%)
Writing library : XviD 1.2.0SMP (UTC 2006-01-08)
Audio
ID : 1
Format : MPEG Audio
Format version : Version 2
Format profile : Layer 3
Mode : Joint stereo
Mode extension : Intensity Stereo + MS Stereo
Codec ID : 55
Codec ID/Hint : MP3
Duration : 1h 51mn
Bit rate mode : Constant
Bit rate : 56.0 Kbps
Channel(s) : 2 channels
Sampling rate : 24.0 KHz
Compression mode : Lossy
Stream size : 44.7 MiB (4%)
Alignment : Split accross interleaves
Interleave, duration : 40 ms (1.00 video frame)
Interleave, preload duration : 500 ms
-

Этап 14. 29.08.2004. Гран При Бельгии, Спа-Франкоршан

-File size: 3339.98 MBytes (3 502 218 710 Bytes)
Duration: 01:58:16.184
Overall bitrate: 3948 Kbps
Title: 2004 Belgian Grand Prix round 14 ru
Video: 720x576 (4:3) @ 768x576, 50.000 fps, AVC, ~3750 Kbps, 0.181 bits/pixel
Audio: Russian, 48.0 KHz, AC3, 2 ch, 192 Kbps-

Media Info


General
Unique ID : 220489809358234061565078006313027193356 (0xA5E0CAE9A334584A8188DC7A680D4A0C)
Format : Matroska
Format version : Version 4 / Version 2
File size : 3.26 GiB
Duration : 1h 58mn
Overall bit rate : 3 948 Kbps
Movie name : 2004 Belgian Grand Prix round 14 ru
Encoded date : UTC 2014-10-15 16:45:04
Writing application : mkvmerge v7.2.0 ('On Every Street') 64bit built on Sep 13 2014 15:52:10
Writing library : libebml v1.3.0 + libmatroska v1.4.1
DURATION : 01:58:16.160000000
NUMBER_OF_FRAMES : 221755
NUMBER_OF_BYTES : 170307840
_STATISTICS_WRITING_APP : mkvmerge v7.2.0 ('On Every Street') 64bit built on Sep 13 2014 15:52:10
_STATISTICS_WRITING_DATE_UTC : 2014-10-15 16:45:04
_STATISTICS_TAGS : BPS DURATION NUMBER_OF_FRAMES NUMBER_OF_BYTES
Video
ID : 1
Format : AVC
Format/Info : Advanced Video Codec
Format profile : [email protected]
Format settings, CABAC : Yes
Format settings, ReFrames : 5 frames
Codec ID : V_MPEG4/ISO/AVC
Duration : 1h 58mn
Bit rate : 3 750 Kbps
Width : 720 pixels
Height : 576 pixels
Display aspect ratio : 4:3
Frame rate mode : Constant
Frame rate : 50.000 fps
Standard : PAL
Color space : YUV
Chroma subsampling : 4:2:0
Bit depth : 8 bits
Scan type : Progressive
Bits/(Pixel*Frame) : 0.181
Stream size : 3.04 GiB (93%)
Writing library : x264 core 112 r1867 22bfd31
Encoding settings : cabac=1 / ref=5 / deblock=1:-2:-1 / analyse=0x3:0x113 / me=hex / subme=7 / psy=1 / psy_rd=1.00:0.00 / mixed_ref=1 / me_range=16 / chroma_me=1 / trellis=2 / 8x8dct=1 / cqm=0 / deadzone=21,11 / fast_pskip=1 / chroma_qp_offset=-2 / threads=6 / sliced_threads=0 / nr=0 / decimate=1 / interlaced=0 / constrained_intra=0 / bframes=4 / b_pyramid=2 / b_adapt=2 / b_bias=0 / direct=3 / weightb=1 / open_gop=0 / weightp=2 / keyint=250 / keyint_min=25 / scenecut=40 / intra_refresh=0 / rc_lookahead=60 / rc=2pass / mbtree=1 / bitrate=3750 / ratetol=2.0 / qcomp=0.60 / qpmin=10 / qpmax=51 / qpstep=4 / cplxblur=20.0 / qblur=0.5 / ip_ratio=1.40 / aq=1:1.00
Language : English
Default : Yes
Forced : No
DURATION : 01:58:16.159000000
NUMBER_OF_FRAMES : 354808
NUMBER_OF_BYTES : 3329073296
_STATISTICS_WRITING_APP : mkvmerge v7.2.0 ('On Every Street') 64bit built on Sep 13 2014 15:52:10
_STATISTICS_WRITING_DATE_UTC : 2014-10-15 16:45:04
_STATISTICS_TAGS : BPS DURATION NUMBER_OF_FRAMES NUMBER_OF_BYTES
Audio
ID : 2
Format : AC-3
Format/Info : Audio Coding 3
Mode extension : CM (complete main)
Format settings, Endianness : Big
Codec ID : A_AC3
Duration : 1h 58mn
Bit rate mode : Constant
Bit rate : 192 Kbps
Channel(s) : 2 channels
Channel positions : Front: L R
Sampling rate : 48.0 KHz
Bit depth : 16 bits
Compression mode : Lossy
Delay relative to video : 24ms
Stream size : 162 MiB (5%)
Language : Russian
Default : Yes
Forced : No
-

Этап 15. 12.09.2004. Гран При Италии, Монца

-File size: 1850.34 MBytes (1 940 224 523 Bytes)
Duration: 01:45:24.821
Overall bitrate: 2454 Kbps
Title: 2004 75° Gran Premio Vodafone d'Italia round 15 ru
Video: 720x576 (4:3) @ 768x576, 25.000 fps, AVC
Audio: Russian, 48.0 KHz, AAC LC, 2 ch-

Media Info


General
Unique ID : 195286032276260675045229498511339484306 (0x92EAB8C32CEFA37C9A82A4A22D52F492)
Format : Matroska
Format version : Version 4 / Version 2
File size : 1.81 GiB
Duration : 1h 45mn
Overall bit rate : 2 454 Kbps
Movie name : 2004 75° Gran Premio Vodafone d'Italia round 15 ru
Encoded date : UTC 2014-10-15 16:47:07
Writing application : mkvmerge v7.2.0 ('On Every Street') 64bit built on Sep 13 2014 15:52:10
Writing library : libebml v1.3.0 + libmatroska v1.4.1
DURATION : 01:45:24.821000000
NUMBER_OF_FRAMES : 296476
NUMBER_OF_BYTES : 101193976
_STATISTICS_WRITING_APP : mkvmerge v7.2.0 ('On Every Street') 64bit built on Sep 13 2014 15:52:10
_STATISTICS_WRITING_DATE_UTC : 2014-10-15 16:47:07
_STATISTICS_TAGS : BPS DURATION NUMBER_OF_FRAMES NUMBER_OF_BYTES
Video
ID : 1
Format : AVC
Format/Info : Advanced Video Codec
Format profile : [email protected]
Format settings, CABAC : Yes
Format settings, ReFrames : 3 frames
Codec ID : V_MPEG4/ISO/AVC
Duration : 1h 45mn
Nominal bit rate : 2 324 Kbps
Width : 720 pixels
Height : 576 pixels
Display aspect ratio : 4:3
Original display aspect ratio : 5:4
Frame rate mode : Constant
Frame rate : 25.000 fps
Standard : PAL
Color space : YUV
Chroma subsampling : 4:2:0
Bit depth : 8 bits
Scan type : Progressive
Bits/(Pixel*Frame) : 0.224
Writing library : x264 core 132 r2310 76a5c3a
Encoding settings : cabac=1 / ref=2 / deblock=1:0:0 / analyse=0x3:0x113 / me=hex / subme=7 / psy=0 / mixed_ref=1 / me_range=16 / chroma_me=1 / trellis=1 / 8x8dct=1 / cqm=0 / deadzone=21,11 / fast_pskip=1 / chroma_qp_offset=0 / threads=6 / lookahead_threads=1 / sliced_threads=0 / nr=0 / decimate=1 / interlaced=0 / bluray_compat=0 / constrained_intra=0 / bframes=3 / b_pyramid=1 / b_adapt=1 / b_bias=0 / direct=1 / weightb=1 / open_gop=0 / weightp=2 / keyint=250 / keyint_min=25 / scenecut=40 / intra_refresh=0 / rc_lookahead=40 / rc=2pass / mbtree=1 / bitrate=2324 / ratetol=1.0 / qcomp=0.60 / qpmin=0 / qpmax=69 / qpstep=4 / cplxblur=20.0 / qblur=0.5 / ip_ratio=1.40 / aq=1:1.00
Language : English
Default : Yes
Forced : No
Audio
ID : 2
Format : AAC
Format/Info : Advanced Audio Codec
Format profile : LC
Codec ID : A_AAC
Duration : 1h 45mn
Channel(s) : 2 channels
Channel positions : Front: L R
Sampling rate : 48.0 KHz
Compression mode : Lossy
Language : Russian
Default : Yes
Forced : No
-

Этап 16. 26.09.2004. Гран При Китая, Шанхай

-Title: 2004 Sinopec Chinese Grand Prix round 16 ru
FileSize: 1110.80 Mb ( 1 164 759 040 bytes )
Play length: 01:56:54.174 (175364 frames)
Subtitles: Not Present
Video: 686x548 (1.25:1), 25.001 fps, XviD MPEG-4 ~1262 kbps avg, 0.13 bit/pixel
Audio: 24 kHz, MPEG Layer 3, 2 ch, ~56.00 kbps avg-

Media Info


General
Format : AVI
Format/Info : Audio Video Interleave
File size : 1.08 GiB
Duration : 1h 56mn
Overall bit rate : 1 328 Kbps
Movie name : 2004 Sinopec Chinese Grand Prix round 16 ru
Writing application : VirtualDubMod 1.5.10.3 (build 2550/release)
Writing library : VirtualDubMod build 2550/release
Video
ID : 0
Format : MPEG-4 Visual
Format profile : Advanced [email protected]
Format settings, BVOP : 1
Format settings, QPel : No
Format settings, GMC : No warppoints
Format settings, Matrix : Default (H.263)
Muxing mode : Packed bitstream
Codec ID : XVID
Codec ID/Hint : XviD
Duration : 1h 56mn
Bit rate : 1 263 Kbps
Width : 686 pixels
Height : 548 pixels
Display aspect ratio : 5:4
Frame rate : 25.000 fps
Color space : YUV
Chroma subsampling : 4:2:0
Bit depth : 8 bits
Scan type : Progressive
Compression mode : Lossy
Bits/(Pixel*Frame) : 0.134
Stream size : 1.03 GiB (95%)
Writing library : XviD 1.2.0SMP (UTC 2006-01-08)
Audio
ID : 1
Format : MPEG Audio
Format version : Version 2
Format profile : Layer 3
Mode : Joint stereo
Mode extension : Intensity Stereo + MS Stereo
Codec ID : 55
Codec ID/Hint : MP3
Duration : 1h 56mn
Bit rate mode : Constant
Bit rate : 56.0 Kbps
Channel(s) : 2 channels
Sampling rate : 24.0 KHz
Compression mode : Lossy
Stream size : 46.8 MiB (4%)
Alignment : Split accross interleaves
Interleave, duration : 40 ms (1.00 video frame)
Interleave, preload duration : 500 ms
-

Этап 17. 10.10.2004. Гран При Японии, Судзука

-Title: 2004 Fuji Television Japanese Grand Prix round 17 ru
FileSize: 1110.35 Mb ( 1 164 290 048 bytes )
Play length: 01:36:30.610 (144766 frames)
Subtitles: Not Present
Video: 686x548 (1.25:1), 25 fps, XviD MPEG-4 ~1542 kbps avg, 0.16 bit/pixel
Audio: 24 kHz, MPEG Layer 3, 2 ch, ~56.00 kbps avg-

Media Info


General
Complete name : E:\Distributed files (uTorrent)\2004 full ru\2004 Fuji Television Japanese Grand Prix round 17 ru.avi
Format : AVI
Format/Info : Audio Video Interleave
File size : 1.08 GiB
Duration : 1h 36mn
Overall bit rate : 1 609 Kbps
Movie name : 2004 Fuji Television Japanese Grand Prix round 17 ru
Writing application : VirtualDubMod 1.5.10.3 (build 2550/release)
Writing library : VirtualDubMod build 2550/release
Video
ID : 0
Format : MPEG-4 Visual
Format profile : Advanced [email protected]
Format settings, BVOP : 1
Format settings, QPel : No
Format settings, GMC : No warppoints
Format settings, Matrix : Default (H.263)
Muxing mode : Packed bitstream
Codec ID : XVID
Codec ID/Hint : XviD
Duration : 1h 36mn
Bit rate : 1 543 Kbps
Width : 686 pixels
Height : 548 pixels
Display aspect ratio : 5:4
Frame rate : 25.000 fps
Color space : YUV
Chroma subsampling : 4:2:0
Bit depth : 8 bits
Scan type : Progressive
Compression mode : Lossy
Bits/(Pixel*Frame) : 0.164
Stream size : 1.04 GiB (96%)
Writing library : XviD 1.2.0SMP (UTC 2006-01-08)
Audio
ID : 1
Format : MPEG Audio
Format version : Version 2
Format profile : Layer 3
Mode : Joint stereo
Mode extension : Intensity Stereo + MS Stereo
Codec ID : 55
Codec ID/Hint : MP3
Duration : 1h 36mn
Bit rate mode : Constant
Bit rate : 56.0 Kbps
Channel(s) : 2 channels
Sampling rate : 24.0 KHz
Compression mode : Lossy
Stream size : 38.7 MiB (3%)
Alignment : Split accross interleaves
Interleave, duration : 40 ms (1.00 video frame)
Interleave, preload duration : 500 ms
-

Этап 18. 24.10.2004. Гран При Бразилии, Интерлагос

-Title: 2004 33° Grande Premio do Brasil round 18 ru
FileSize: 1111.30 Mb ( 1 165 279 232 bytes )
Play length: 01:52:42.125 (169054 frames)
Subtitles: Not Present
Video: 686x548 (1.25:1), 25 fps, XviD MPEG-4 ~1312 kbps avg, 0.14 bit/pixel
Audio: 24 kHz, MPEG Layer 3, 2 ch, ~56.00 kbps avg-

Media Info


General
Complete name : E:\Distributed files (uTorrent)\2004 full ru\2004 33° Grande Premio do Brasil round 18 ru.avi
Format : AVI
Format/Info : Audio Video Interleave
File size : 1.09 GiB
Duration : 1h 52mn
Overall bit rate : 1 379 Kbps
Movie name : 2004 33° Grande Premio do Brasil round 18 ru
Writing application : VirtualDubMod 1.5.10.3 (build 2550/release)
Writing library : VirtualDubMod build 2550/release
Video
ID : 0
Format : MPEG-4 Visual
Format profile : Advanced [email protected]
Format settings, BVOP : 1
Format settings, QPel : No
Format settings, GMC : No warppoints
Format settings, Matrix : Default (H.263)
Muxing mode : Packed bitstream
Codec ID : XVID
Codec ID/Hint : XviD
Duration : 1h 52mn
Bit rate : 1 313 Kbps
Width : 686 pixels
Height : 548 pixels
Display aspect ratio : 5:4
Frame rate : 25.000 fps
Color space : YUV
Chroma subsampling : 4:2:0
Bit depth : 8 bits
Scan type : Progressive
Compression mode : Lossy
Bits/(Pixel*Frame) : 0.140
Stream size : 1.03 GiB (95%)
Writing library : XviD 1.2.0SMP (UTC 2006-01-08)
Audio
ID : 1
Format : MPEG Audio
Format version : Version 2
Format profile : Layer 3
Mode : Joint stereo
Mode extension : Intensity Stereo + MS Stereo
Codec ID : 55
Codec ID/Hint : MP3
Duration : 1h 52mn
Bit rate mode : Constant
Bit rate : 56.0 Kbps
Channel(s) : 2 channels
Sampling rate : 24.0 KHz
Compression mode : Lossy
Stream size : 45.1 MiB (4%)
Alignment : Split accross interleaves
Interleave, duration : 40 ms (1.00 video frame)
Interleave, preload duration : 500 ms
-

Скриншоты





-

Создавать темы 24-Окт-2014 19:21

[Профиль]  [ЛС] 

Clark_hister

Стаж: 4 года 4 месяца

Сообщений: 100

Симпатии: 21

Золото этому релизу!)

Создавать темы 24-Окт-2014 19:23

[Профиль]  [ЛС] 
Показать сообщения:    
Ответить на тему

Текущее время: 24-Ноя 06:54

Часовой пояс: UTC + 5



Вы не можете начинать темы
Вы не можете отвечать на сообщения
Вы не можете редактировать свои сообщения
Вы не можете удалять свои сообщения
Вы не можете голосовать в опросах
Вы не можете прикреплять файлы к сообщениям
Вы не можете скачивать файлы