Неудержимые 3 / The Expendables 3 (Патрик Хьюз) [2014 г., Боевик, Приключения, Триллер, HDRip]

Ответить на тему
 

Rock321123 ®

Стаж: 6 лет 10 месяцев

Сообщений: 94

Симпатии: 5

Неудержимые 3 / The Expendables 3
Год выпуска: 2014
Страна: США
Жанр: Боевик, Приключения, Триллер
Продолжительность: 02:06:27
Перевод: Профессиональный (полное дублирование)
Режиссер: Патрик Хьюз
В ролях: Антонио Бандерас, Арнольд Шварценеггер, Джет Ли, Дольф Лундгрен, Келлан Латс, Мэл Гибсон, Сильвестр Сталлоне, Уэсли Снайпс, Харрисон Форд, Джейсон Стэйтем
Описание: Самые громкие имена. Самые широкие плечи. Самые дорогие игрушки. Самые весомые аргументы. И одна сногсшибательная блондинка.
Настоящие джентльмены просто так не собираются.
Качество: HDRip
Формат: AVI
Видео кодек: Другой MPEG4
Аудио кодек: AC3
Видео: MPEG-4 Visual, 1261 Kbps
Аудио: AC-3, 384 Kbps, 2 channels, 48.0 KHz

Mediainfo

General
Complete name : D:\Downloads\Видео\NeuDerzhimiye_3.2014.D.HDRip.avi
Format : AVI
Format/Info : Audio Video Interleave
File size : 1.46 GiB
Duration : 2h 6mn
Overall bit rate : 1 654 Kbps
Writing application : VirtualDubMod 1.5.10.3 | www.virtualdub-fr.org || (build 2550/release)
Writing library : VirtualDubMod build 2550/release
Video
ID : 0
Format : MPEG-4 Visual
Format profile : Advanced [email protected]
Format settings, BVOP : 2
Format settings, QPel : No
Format settings, GMC : No warppoints
Format settings, Matrix : Default (MPEG)
Codec ID : XVID
Codec ID/Hint : XviD
Duration : 2h 6mn
Bit rate : 1 261 Kbps
Width : 720 pixels
Height : 304 pixels
Display aspect ratio : 2.35:1
Frame rate : 23.976 fps
Color space : YUV
Chroma subsampling : 4:2:0
Bit depth : 8 bits
Scan type : Progressive
Compression mode : Lossy
Bits/(Pixel*Frame) : 0.240
Stream size : 1.11 GiB (76%)
Writing library : XviD 1.2.1 (UTC 2008-12-04)
Audio
ID : 1
Format : AC-3
Format/Info : Audio Coding 3
Mode extension : CM (complete main)
Format settings, Endianness : Big
Codec ID : 2000
Duration : 2h 6mn
Bit rate mode : Constant
Bit rate : 384 Kbps
Channel(s) : 2 channels
Channel positions : Front: L R
Sampling rate : 48.0 KHz
Bit depth : 16 bits
Compression mode : Lossy
Stream size : 347 MiB (23%)
Alignment : Split accross interleaves
Interleave, duration : 42 ms (1.00 video frame)
Interleave, preload duration : 500 ms

Скриншоты

Создавать темы 25-Окт-2014 21:36

[Профиль]  [ЛС] 

Sinema_uz

Стаж: 6 лет 7 месяцев

Сообщений: 303

Симпатии: 4

Создавать темы 26-Окт-2014 06:00

[Профиль]  [ЛС] 

razor2011

Стаж: 4 года 11 месяцев

Сообщений: 227

Симпатии: 37

это чз ?

Создавать темы 26-Окт-2014 09:53

[Профиль]  [ЛС] 

Sinema_uz

Стаж: 6 лет 7 месяцев

Сообщений: 303

Симпатии: 4

наверно не лецензия а чистый звук?

Создавать темы 26-Окт-2014 11:24

[Профиль]  [ЛС] 

FLYer

Стаж: 6 лет 9 месяцев

Сообщений: 94

Симпатии: 18

кто скачал скажите это дубляж или чистый звук?

Создавать темы 26-Окт-2014 13:07

[Профиль]  [ЛС] 

Rock321123 ®

Стаж: 6 лет 10 месяцев

Сообщений: 94

Симпатии: 5

Лицензия и Чистый звук

Создавать темы 26-Окт-2014 13:56

[Профиль]  [ЛС] 

zhozef

Стаж: 5 лет 7 месяцев

Сообщений: 35

Симпатии: 6

889017Лицензия и Чистый звук
это не лицензионный перевод

Создавать темы 26-Окт-2014 15:25

[Профиль]  [ЛС] 

TimaK

Стаж: 6 лет 3 месяца

Сообщений: 129

Симпатии: 23

889006кто скачал скажите это дубляж или чистый звук?
смотрел 15 мин и не смог привыкнуть к этому переводу. Ценители чистого звука поймут о чем я. Буду ждать чистого звука. Таких фильмов стоит смотреть в чз.

Создавать темы 27-Окт-2014 23:48

[Профиль]  [ЛС] 

$part@

Стаж: 3 года 10 месяцев

Сообщений: 11

Симпатии: 1

А когда лицензионный перевод?

Создавать темы 28-Окт-2014 00:03

[Профиль]  [ЛС] 

RedBull

Стаж: 6 лет 4 месяца

Сообщений: 185

Симпатии: 4

эта часть не очень,слишком много актёров напихали

Создавать темы 28-Окт-2014 12:19

[Профиль]  [ЛС] 

Grock

Стаж: 6 лет 6 месяцев

Сообщений: 637

Симпатии: 113

Rock321123, Укажите качество звука

Создавать темы 28-Окт-2014 17:23

[Профиль]  [ЛС] 

Oshiq

Стаж: 5 лет 7 месяцев

Сообщений: 18

Симпатии: 1

Звук чистый !!! фильм хорош

Создавать темы 28-Окт-2014 22:54

[Профиль]  [ЛС] 

kolbasnik

Стаж: 7 лет 7 месяцев

Сообщений: 21

Симпатии: 5

спасибо за фильм.
звук не очень. ждем лицензию))

Создавать темы 31-Окт-2014 21:04

[Профиль]  [ЛС] 

totsamiy

Стаж: 5 лет 2 месяца

Сообщений: 145

Симпатии: 22

звук не официальный, актеров озвучивали чужие идиоты )))))

Создавать темы 01-Ноя-2014 01:10

[Профиль]  [ЛС] 

Dominant

Стаж: 5 лет 7 месяцев

Сообщений: 13

889529
889006кто скачал скажите это дубляж или чистый звук?
смотрел 15 мин и не смог привыкнуть к этому переводу. Ценители чистого звука поймут о чем я. Буду ждать чистого звука. Таких фильмов стоит смотреть в чз.
полностью согласен!! ценю чистый звук, привычные голоса переводчиков каждого из этих актёров!!

Создавать темы 08-Ноя-2014 07:14

[Профиль]  [ЛС] 
Показать сообщения:    
Ответить на тему

Текущее время: 22-Авг 08:43

Часовой пояс: UTC + 5



Вы не можете начинать темы
Вы не можете отвечать на сообщения
Вы не можете редактировать свои сообщения
Вы не можете удалять свои сообщения
Вы не можете голосовать в опросах
Вы не можете прикреплять файлы к сообщениям
Вы не можете скачивать файлы