Чужая война (Александр Черняев) [2014 г., боевик, HDRip]

Ответить на тему
 

igor1968 ®

Стаж: 5 лет 7 месяцев

Сообщений: 366

Симпатии: 197

Чужая война/the SOLDIER Год выпуска: 2014
Страны:
Жанр: боевик
Продолжительность: 01:25:10.959
Перевод / Озвучка: Любительский двухголосный - (Диапазон)
Генеральный продюсер: Александр Черняев, Дмитрий Воронков, Иракли Карбая
Работа с камерой: Даян Гайткулов
Режиссер: Александр Черняев
В ролях: Вячеслав Крикунов, Артем Ткаченко, Александр Самойленко, Валерий Соловьев, Александр Фисенко, Амаду Мамадаков, Владислав Демин, Никита Грибанов, Николай Мачульский, Михаил Тарабукин- Действие фильма разворачивается в 1970 году. В то время как родные Павла получали письма от сына, который служит в Советской армии, сам солдат находится далеко за пределами СССР. Безупречное знание английского языка приводит к тому, что Павла отправляют в составе спецотряда помогать северной части Вьетнама в войне против американцев. Павел вместе с сослуживцами должен был захватывать новейшую технику, которой был оснащен враг. Но однажды на его отряд напали, практически все погибли. Но сам Павел чудом выжил. Вот только после того как он побывал в руках врагов, его дальнейшая служба полностью поменялась...- -Качество: HDRip
Формат: AVI
Видео кодек: XviD
Аудио кодек: AC3
Видео: 720x304 (2.37:1), 25 fps, XviD build 62 ~2057 kbps avg, 0.38 bit/pixel
Аудио: 48 kHz, AC3 Dolby Digital, 2/0 (L,R) ch, ~256.00 kbps avg-

MediaInfo

General
Complete name : The Soldier (2014) HDRip L2.avi
Format : AVI
Format/Info : Audio Video Interleave
Format profile : OpenDML
Format settings : rec
File size : 1.38 GiB
Duration : 1h 25mn
Overall bit rate : 2 320 Kbps
Writing application : AVI-Mux GUI 1.17.8.3, Feb 16 201019:42:50
Video
ID : 0
Format : MPEG-4 Visual
Format profile : Advanced [email protected]
Format settings, BVOP : No
Format settings, QPel : No
Format settings, GMC : No warppoints
Format settings, Matrix : Default (H.263)
Codec ID : XVID
Codec ID/Hint : XviD
Duration : 1h 25mn
Bit rate : 2 059 Kbps
Width : 720 pixels
Height : 304 pixels
Display aspect ratio : 2.35:1
Frame rate : 25.000 fps
Color space : YUV
Chroma subsampling : 4:2:0
Bit depth : 8 bits
Scan type : Progressive
Compression mode : Lossy
Bits/(Pixel*Frame) : 0.376
Stream size : 1.22 GiB (89%)
Writing library : XviD 62
Audio
ID : 1
Format : AC-3
Format/Info : Audio Coding 3
Mode extension : CM (complete main)
Format settings, Endianness : Big
Codec ID : 2000
Duration : 1h 25mn
Bit rate mode : Constant
Bit rate : 256 Kbps
Channel count : 2 channels
Channel positions : Front: L R
Sampling rate : 48.0 KHz
Bit depth : 16 bits
Compression mode : Lossy
Stream size : 156 MiB (11%)
Alignment : Aligned on interleaves
Interleave, duration : 64 ms (1.60 video frames)
Interleave, preload duration : 192 ms
Title : Rus(1)
- -

Создавать темы 27-Окт-2014 11:50

[Профиль]  [ЛС] 

Mixer City

Стаж: 6 лет 10 месяцев

Сообщений: 754

Симпатии: 63

igor1968, постер бы нормальный...

Создавать темы 27-Окт-2014 17:20

[Профиль]  [ЛС] 

igor1968 ®

Стаж: 5 лет 7 месяцев

Сообщений: 366

Симпатии: 197

889379igor1968, постер бы нормальный...
Вставить не могу уже проверенно, поменяйте если-что.

Скриншоты

Создавать темы 27-Окт-2014 19:39

[Профиль]  [ЛС] 

Mixer City

Стаж: 6 лет 10 месяцев

Сообщений: 754

Симпатии: 63

igor1968, done!

Создавать темы 27-Окт-2014 21:28

[Профиль]  [ЛС] 

serj777

Стаж: 4 года 3 месяца

Сообщений: 59

Симпатии: 3

ужасный рейтинг! зачем такое выкладывать?

Создавать темы 03-Ноя-2014 08:47

[Профиль]  [ЛС] 

azizaliev

Стаж: 5 лет

Сообщений: 27

фильм как отпишитесь кто скачал

Создавать темы 11-Ноя-2014 17:32

[Профиль]  [ЛС] 
Показать сообщения:    
Ответить на тему

Текущее время: 23-Окт 00:26

Часовой пояс: UTC + 5



Вы не можете начинать темы
Вы не можете отвечать на сообщения
Вы не можете редактировать свои сообщения
Вы не можете удалять свои сообщения
Вы не можете голосовать в опросах
Вы не можете прикреплять файлы к сообщениям
Вы не можете скачивать файлы