Потерянное время / Lost Time (Кристиан Сесма) [2014 г., ужасы, фантастика, триллер, DVDRip]

Ответить на тему
 

igor1968 ®

Стаж: 5 лет 5 месяцев

Сообщений: 366

Симпатии: 197

Потерянное время / Lost Time Год выпуска: 2014
Страна:
Жанр: ужасы, фантастика, триллер
Продолжительность: 01:32:40.563
Перевод: Любительский (одноголосый)
Режиссер: Кристиан Сесма
По сценарию: Кеннет Оуэнс, Кристиан Сесма, Рошелль Валлес
Генеральный продюсер: Кристиан Сесма, Рошелль Валлес, Jerry Apodaca
Работа с камерой: Энтони Дж. Рикерт-Эпстин
Музыкальное оформление: Неди Джон Кросс-В ролях:Рошелль Валлес, Люк Госс, Роберт Дави, Дерек Мирс, Лин Шэй, Дженни Блонг, Вито Руджинис, Челси Рикеттс, Мария Олсен, Тоня Корнелисс- Однажды ночью Валери вместе со своей сестрой Мелиссой ехали на машине. Вдруг яркий луч света озарил авто и Валери отключилась. Когда он пришла в себя то сестры рядом не было. Ее похитили инопланетяне. В поисках сестры Валери находит человека, который как она считает, может помочь ей в этом. Ведь он с большой точностью писал о подобных историях в своих книгах. Однако, выясняется, что этот человек связан с пришельцами и несет угрозу. Сможет ли Валери еще хоть раз увидеть сестру?- -Качество: DVDRip
Формат: AVI
Видео кодек: XviD
Аудио кодек: MP3
Видео: 640x272 (2.35:1), 23.976 fps, XviD build 50 ~977 kbps avg, 0.23 bit/pixel
Аудио: 44.100 kHz, MPEG Layer 3, 2 ch, ~128.00 kbps avg-

MediaInfo

General
Complete name : Poterjannoe.vremja.2014.DVDRip.740.avi
Format : AVI
Format/Info : Audio Video Interleave
File size : 739 MiB
Duration : 1h 32mn
Overall bit rate : 1 115 Kbps
Writing application : VirtualDubMod 1.5.10.3 | www.virtualdub-fr.org || (build 2550/release)
Writing library : VirtualDubMod build 2550/release
Video
ID : 0
Format : MPEG-4 Visual
Format profile : Advanced [email protected]
Format settings, BVOP : Yes
Format settings, QPel : No
Format settings, GMC : No warppoints
Format settings, Matrix : Default (H.263)
Codec ID : XVID
Codec ID/Hint : XviD
Duration : 1h 32mn
Bit rate : 977 Kbps
Width : 640 pixels
Height : 272 pixels
Display aspect ratio : 2.35:1
Frame rate : 23.976 fps
Color space : YUV
Chroma subsampling : 4:2:0
Bit depth : 8 bits
Scan type : Progressive
Compression mode : Lossy
Bits/(Pixel*Frame) : 0.234
Stream size : 648 MiB (88%)
Writing library : XviD 1.2.1 (UTC 2008-12-04)
Audio
ID : 1
Format : MPEG Audio
Format version : Version 1
Format profile : Layer 3
Codec ID : 55
Codec ID/Hint : MP3
Duration : 1h 32mn
Bit rate mode : Constant
Bit rate : 128 Kbps
Channel count : 2 channels
Sampling rate : 44.1 KHz
Compression mode : Lossy
Stream size : 84.8 MiB (11%)
Alignment : Split accross interleaves
Interleave, duration : 42 ms (1.00 video frame)
Interleave, preload duration : 500 ms
Writing library : LAME3.98r
Encoding settings : -m s -V 4 -q 2 -lowpass 17 -b 128
- -


Последний раз редактировалось: igor1968 (2014-10-27 20:17), всего редактировалось 1 раз

Создавать темы 27-Окт-2014 18:28

[Профиль]  [ЛС] 

[email protected]

Стаж: 4 года 9 месяцев

Сообщений: 23

Симпатии: 3

Такой рейтинг впервые вижу. Хуже некуда. О чем думают когда снимают такое кино.

Создавать темы 27-Окт-2014 18:51

[Профиль]  [ЛС] 

Snooker

Стаж: 3 года 8 месяцев

Сообщений: 18

Симпатии: 2

зато обложка продаваемая))

Создавать темы 27-Окт-2014 18:56

[Профиль]  [ЛС] 

Slapper

Стаж: 3 года 9 месяцев

Сообщений: 2193

Симпатии: 213

igor1968, постер лучше сменить, глаза мозолит

на этот

Создавать темы 27-Окт-2014 19:32

[Профиль]  [ЛС] 

igor1968 ®

Стаж: 5 лет 5 месяцев

Сообщений: 366

Симпатии: 197

889444igor1968, постер лучше сменить, глаза мозолит

на этот

Так пойдет?

Создавать темы 27-Окт-2014 20:17

[Профиль]  [ЛС] 

Mixer City

Стаж: 6 лет 7 месяцев

Сообщений: 754

Симпатии: 63

igor1968, пойдёт.

Создавать темы 27-Окт-2014 21:30

[Профиль]  [ЛС] 

serj777

Стаж: 4 года 1 месяц

Сообщений: 59

Симпатии: 3

зачем вообще вкладывают такой ацтой?

Создавать темы 03-Ноя-2014 08:43

[Профиль]  [ЛС] 
Показать сообщения:    
Ответить на тему

Текущее время: 19-Авг 01:17

Часовой пояс: UTC + 5



Вы не можете начинать темы
Вы не можете отвечать на сообщения
Вы не можете редактировать свои сообщения
Вы не можете удалять свои сообщения
Вы не можете голосовать в опросах
Вы не можете прикреплять файлы к сообщениям
Вы не можете скачивать файлы