Что-то не так с Кевином / We Need to Talk About Kevin (Линн Рэмси / Lynne Ramsay) [2011 г., триллер, драма, BDRip-AVC] MVO + AVO (Сербин) + Original + Sub (Rus)

Ответить на тему
 

Jeneva ®

Стаж: 5 лет 5 месяцев

Сообщений: 47

Симпатии: 70

Что-то не так с Кевином / We Need to Talk About Kevin- Год выпуска: 2011
Страна: Великобритания, США
Жанр: триллер, драма
Продолжительность: 01:51:58
Перевод: Профессиональный (многоголосый закадровый), Авторский (одноголосый закадровый) Ю. Сербин
Cубтитры: есть--Режиссер: Линн Рэмси / Lynne Ramsay--В ролях: Тильда Суинтон, Джон Си Райли, Эзра Миллер, Джаспер Ньюэлл, Рок Дер, Эшли Герасимович, Шаван Фэллон, Алекс Манетт, Кеннет Франклин, Лесли Лайлс...--Описание: Отложив в сторону все личные и профессиональные амбиции, Ева посвящает жизнь рождению и воспитанию сына. Однако их отношения с самого начала оказываются крайне сложными. В пятнадцать лет Кевин совершает непоправимое, и Ева мучается сознанием ответственности и собственной вины. Достаточно ли она любила своего сына? Какова доля ее вины в происшедшем?..--Рейтинг:
 
Возраст: 16+--Качество: BDRip-AVC
Формат: MKV
Видео кодек: H.264
Аудио кодек: AC3
Видео: 1024x432 (2,40:1), 24 fps, 1278 kbps, 0.120 bit/pixel
Аудио №1: Russian; 48 kHz, AC3 Dolby Digital, 2 ch, ~192.00 kbps - Многоголосый
Аудио №2: Russian; 48 kHz, AC3 Dolby Digital, 2 ch, ~192.00 kbps - Ю. Сербин
Аудио №3: English; 48 kHz, AC3 Dolby Digital, 2 ch, ~192.00 kbps - Оригинал
Субтитры: Русские, UTF-8--

Награды и номинации


2011 — участие в основном конкурсе Каннского кинофестиваля.
2011 — приз зрительских симпатий Гентского кинофестиваля (Линн Рэмси).
2011 — приз за лучший фильм на Лондонском кинофестивале (Линн Рэмси).
2011 — Премия британского независимого кино за лучшую режиссуру (Линн Рэмси), а также 5 номинаций: лучший британский независимый фильм, лучший сценарий (Линн Рэмси, Рори Киннэр), лучшая актриса (Тильда Суинтон), лучший актер второго плана (Эзра Миллер), лучшее техническое достижение (Шеймас Макгарви за операторскую работу).
2011 — премия European Film Awards за лучшую женскую роль (Тильда Суинтон).
2011 — два приза Национального совета кинокритиков США: лучшая актриса (Тильда Суинтон), лучший независимый фильм.
2012 — три номинации на премию BAFTA: лучший британский фильм, лучший режиссер (Линн Рэмси), лучшая актриса (Тильда Суинтон).
2012 — номинация на премию «Золотой глобус» за лучшую женскую роль — драма (Тильда Суинтон).
2012 — номинация на премию Гильдии киноактеров США за лучшую женскую роль (Тильда Суинтон).
2012 — 4 номинации на премию Австралийского киноинститута: лучший фильм, лучший режиссер (Линн Рэмси), лучший сценарий (Линн Рэмси, Рори Киннэр), лучшая актриса (Тильда Суинтон).

Знаете ли вы, что...


Фильм снят по роману американской журналистки и писательницы Лайонел Шрайвер — «Цена нелюбви».

MediaInfo

Общее
Уникальный идентификатор : 196716045583830790502174030646922628430 (0x93FE21DCA6F277C7B6FD7C645FB2CD4E)
Полное имя :We Need to Talk About Kevin.2011.BDRip-AVC.mkv
Формат : Matroska
Версия формата : Version 4 / Version 2
Размер файла : 1,45 Гбайт
Продолжительность : 1 ч. 51 м.
Общий поток : 1854 Кбит/сек
Название фильма : Что-то не так с Кевином / We Need to Talk About Kevin (2011) BDRip-AVC
Дата кодирования : UTC 2013-05-29 04:54:53
Программа кодирования : mkvmerge v6.2.0 ('Promised Land') built on Apr 28 2013 12:22:01
Библиотека кодирования : libebml v1.3.0 + libmatroska v1.4.0
Видео
Идентификатор : 1
Формат : AVC
Формат/Информация : Advanced Video Codec
Профиль формата : [email protected]
Параметр CABAC формата : Да
Параметр ReFrames формата : 13 кадров
Идентификатор кодека : V_MPEG4/ISO/AVC
Продолжительность : 1 ч. 51 м.
Битрейт : 1278 Кбит/сек
Ширина : 1024 пикселя
Высота : 432 пикселя
Соотношение сторон : 2,40:1
Режим частоты кадров : Постоянный
Частота кадров : 24,000 кадра/сек
Цветовое пространство : YUV
Субдискретизация насыщенности : 4:2:0
Битовая глубина : 8 бит
Тип развёртки : Прогрессивная
Бит/(Пиксели*Кадры) : 0.120
Размер потока : 994 Мбайт (67%)
Библиотека кодирования : x264 core 133 r2334 a3ac64b
Настройки программы : cabac=1 / ref=13 / deblock=1:-2:-1 / analyse=0x3:0x113 / me=umh / subme=9 / psy=1 / psy_rd=1.50:0.13 / mixed_ref=1 / me_range=32 / chroma_me=1 / trellis=2 / 8x8dct=1 / cqm=0 / deadzone=21,11 / fast_pskip=0 / chroma_qp_offset=-3 / threads=10 / lookahead_threads=1 / sliced_threads=0 / nr=0 / decimate=1 / interlaced=0 / bluray_compat=0 / constrained_intra=0 / bframes=6 / b_pyramid=2 / b_adapt=2 / b_bias=0 / direct=3 / weightb=1 / open_gop=0 / weightp=0 / keyint=240 / keyint_min=22 / scenecut=40 / intra_refresh=0 / rc_lookahead=40 / rc=2pass / mbtree=0 / bitrate=1278 / ratetol=1.0 / qcomp=0.60 / qpmin=0 / qpmax=69 / qpstep=4 / cplxblur=20.0 / qblur=0.5 / vbv_maxrate=62500 / vbv_bufsize=78125 / nal_hrd=none / ip_ratio=1.40 / pb_ratio=1.30 / aq=2:1.00
Default : Да
Forced : Нет
Аудио #1
Идентификатор : 2
Формат : AC-3
Формат/Информация : Audio Coding 3
Расширение режима : CM (complete main)
Параметр Endianness формата : Big
Идентификатор кодека : A_AC3
Продолжительность : 1 ч. 51 м.
Вид битрейта : Постоянный
Битрейт : 192 Кбит/сек
Каналы : 2 канала
Расположение каналов : Front: L R
Частота : 48,0 КГц
Битовая глубина : 16 бит
Метод сжатия : С потерями
Размер потока : 154 Мбайт (10%)
Заголовок : Профессиональный (многоголосый закадровый)
Язык : Russian
Default : Да
Forced : Нет
Аудио #2
Идентификатор : 3
Формат : AC-3
Формат/Информация : Audio Coding 3
Расширение режима : CM (complete main)
Параметр Endianness формата : Big
Идентификатор кодека : A_AC3
Продолжительность : 1 ч. 51 м.
Вид битрейта : Постоянный
Битрейт : 192 Кбит/сек
Каналы : 2 канала
Расположение каналов : Front: L R
Частота : 48,0 КГц
Битовая глубина : 16 бит
Метод сжатия : С потерями
Размер потока : 154 Мбайт (10%)
Заголовок : Авторский (Ю. Сербин)
Язык : Russian
Default : Нет
Forced : Нет
Аудио #3
Идентификатор : 4
Формат : AC-3
Формат/Информация : Audio Coding 3
Расширение режима : CM (complete main)
Параметр Endianness формата : Big
Идентификатор кодека : A_AC3
Продолжительность : 1 ч. 51 м.
Вид битрейта : Постоянный
Битрейт : 192 Кбит/сек
Каналы : 2 канала
Расположение каналов : Front: L R
Частота : 48,0 КГц
Битовая глубина : 16 бит
Метод сжатия : С потерями
Размер потока : 154 Мбайт (10%)
Заголовок : Оригинал
Язык : English
Default : Нет
Forced : Нет
Текст
Идентификатор : 5
Формат : UTF-8
Идентификатор кодека : S_TEXT/UTF8
Идентификатор кодека/Информация : UTF-8 Plain Text
Язык : Russian
Default : Да
Forced : Нет

Скриншоты





Создавать темы 28-Окт-2014 18:06

[Профиль]  [ЛС] 

Mehti

Стаж: 5 лет 3 месяца

Сообщений: 140

Симпатии: 17

Пожалуйста Пожалуйста Пожалуйста хочу скачать классный фильм, недавно в поиск вбивал, а здесь BDRip, да ещё Ю.Сербин ваще супер!

Создавать темы 28-Окт-2014 18:43

[Профиль]  [ЛС] 
Показать сообщения:    
Ответить на тему

Текущее время: 17-Авг 22:31

Часовой пояс: UTC + 5



Вы не можете начинать темы
Вы не можете отвечать на сообщения
Вы не можете редактировать свои сообщения
Вы не можете удалять свои сообщения
Вы не можете голосовать в опросах
Вы не можете прикреплять файлы к сообщениям
Вы не можете скачивать файлы