Город, который боялся заката / The Town That Dreaded Sundown (Альфонсо Гомез-Рейон / Alfonso Gomez-Rejon) [2014 г., ужасы, триллер, HDRip] L1

Ответить на тему
 

Suxrob89 ®

Стаж: 7 лет 1 месяц

Сообщений: 933

Симпатии: 564

-Город, который боялся заката / The Town That Dreaded Sundown- Год выпуска: 2014
Страна: США
Жанр: ужасы, триллер
Продолжительность: 01:26:03
Перевод: Одноголосый закадровый (Виктор Береговых) - по переводу Михаила Васильева
Cубтитры: нет-Режиссер: Альфонсо Гомез-Рейон / Alfonso Gomez-Rejon-В ролях: Эддисон Тимлин, Вероника Картрайт, Гэри Коул, Эдвард Херрманн, Джошуа Леонард, Дэнис О’Хэйр, Спенсер Трит Кларк, Эд Лотер, Уэс Чэтэм, Старлетт Миариаунии-Описание: 65 лет назад серийный убийца в маске терроризировал жителей небольшого города на западе США. И теперь так называемые «убийства в лунном свете» начинаются вновь. Кто за ними стоит? Подражатель, или что-то куда более зловещее? Одинокая школьница, хранящая свой собственный темный секрет, может стать ключом к пониманию происходящего…- -Качество: HDRip
Формат: AVI
Видео кодек: XviD
Аудио кодек: AC3
Видео: XviD, 640x272 (2.35:1), 23.976 fps, 996 kbps avg, 0.239 bit/pixel
Аудио: AC3, 48.0 KHz, 192 Kbps, 2 channels

MediaInfo

Format : AVI
Format/Info : Audio Video Interleave
File size : 737 MiB
Duration : 1h 26mn
Overall bit rate : 1 198 Kbps
Writing application : VirtualDubMod 1.5.10.2 (build 2540/release)
Writing library : VirtualDubMod build 2540/release
Video
ID : 0
Format : MPEG-4 Visual
Format profile : [email protected]
Format settings, BVOP : Yes
Format settings, QPel : No
Format settings, GMC : No warppoints
Format settings, Matrix : Default (H.263)
Muxing mode : Packed bitstream
Codec ID : XVID
Codec ID/Hint : XviD
Duration : 1h 26mn
Bit rate : 996 Kbps
Width : 640 pixels
Height : 272 pixels
Display aspect ratio : 2.35:1
Frame rate : 23.976 fps
Resolution : 24 bits
Colorimetry : 4:2:0
Scan type : Progressive
Bits/(Pixel*Frame) : 0.239
Stream size : 613 MiB (83%)
Writing library : XviD 65
Audio
ID : 1
Format : AC-3
Format/Info : Audio Coding 3
Codec ID : 2000
Duration : 1h 26mn
Bit rate mode : Constant
Bit rate : 192 Kbps
Channel(s) : 2 channels
Channel positions : L R
Sampling rate : 48.0 KHz
Stream size : 118 MiB (16%)
Alignment : Split accross interleaves
Interleave, duration : 42 ms (1.00 video frame)
Interleave, preload duration : 500 ms

Скриншот c названием фильма

Скриншоты



Создавать темы 01-Ноя-2014 06:22

[Профиль]  [ЛС] 

Oybekg

Стаж: 3 года 7 месяцев

Сообщений: 9

thanx

Создавать темы 01-Ноя-2014 06:39

[Профиль]  [ЛС] 

Kuki

Стаж: 6 лет 8 месяцев

Сообщений: 39

Симпатии: 3

как фильм ? как перевоД?

Создавать темы 01-Ноя-2014 23:42

[Профиль]  [ЛС] 

nikish277

Стаж: 4 года 2 месяца

Сообщений: 33

Kuki, Перевод: Одноголосый закадровый (Виктор Береговых) - по переводу Михаила Васильева
Оценки у фильма поганенькие....По ходу фигня.

Создавать темы 08-Ноя-2014 18:04

[Профиль]  [ЛС] 

ulmas13

Стаж: 4 года 7 месяцев

Сообщений: 69

Симпатии: 14

Люблю фильмы такого рода спасибо..!

Создавать темы 14-Дек-2014 09:50

[Профиль]  [ЛС] 
Показать сообщения:    
Ответить на тему

Текущее время: 20-Сен 12:38

Часовой пояс: UTC + 5



Вы не можете начинать темы
Вы не можете отвечать на сообщения
Вы не можете редактировать свои сообщения
Вы не можете удалять свои сообщения
Вы не можете голосовать в опросах
Вы не можете прикреплять файлы к сообщениям
Вы не можете скачивать файлы