Навстречу шторму / Into the Storm (Стивен Куэйл) [2014 г., Фантастика, боевик, приключения, HDRip-AVC от ExKinoRay] | iTunes

Ответить на тему
 

Slapper ®

Стаж: 3 года 10 месяцев

Сообщений: 2193

Симпатии: 213

Навстречу шторму / Into the Storm-«У каждого будет свой... торнадо»- Год выпуска: 2014
Жанр: Фантастика, боевик, приключения
Выпущено: США, Broken Road Productions, New Line Cinema, Village Roadshow
Продолжительность: 01:29:17
Перевод: Профессиональный, дублированный [iTunes]
Субтитры: Русские-Режиссер: Стивен Куэйл-В ролях: Ричард Армитедж, Сара Уэйн Кэллис, Мэтт Уолш, Макс Дикон, Натан Кресс, Алисия Дебнем Кери, Арлен Эскарпета, Джереми Самптер, Ли Уитэйкер, Кайл Дэвис-О фильме: Всего лишь за один день невероятное «нашествие» смерчей практически уничтожило городок Сильверстон. Все его жители были отданы на растерзание непредсказуемым и смертельно опасным торнадо, и при этом метеорологи говорят, что худшее еще впереди. Большинство ищут убежища, в то время как немногие смельчаки идут навстречу стихии, испытывая себя: насколько далеко сможет зайти «охотник за торнадо» ради одного единственного — зато какого! — снимка.- -Качество: HDRip-AVC
Формат: MKV
Видео: MPEG-4 AVC, 2268 Кбит/с, 1024x576
Аудио: Русский (AC3, 6 ch, 384 Кбит/с), английский (AC3, 6 ch, 448 Кбит/с)
-

МедиаИнфо

General
Unique ID : 181916745208435472616485381204898637886 (0x88DBE404CCBEB76793B46ED0ED42683E)
Complete name : C:Into.The.Storm.2014.D.HDRip.AVC.ExKinoRay.mkv
Format : Matroska
Format version : Version 2
File size : 1.93 GiB
Duration : 1h 29mn
Overall bit rate : 3 100 Kbps
Movie name : Into The Storm 2014 from ExKinoRay
Encoded date : UTC 2014-10-29 19:08:22
Writing application : mkvmerge v4.9.1 ('Ich will') built on Jul 11 2011 23:53:15
Writing library : libebml v1.2.1 + libmatroska v1.1.1
Video
ID : 1
Format : AVC
Format/Info : Advanced Video Codec
Format profile : [email protected]
Format settings, CABAC : Yes
Format settings, ReFrames : 9 frames
Codec ID : V_MPEG4/ISO/AVC
Duration : 1h 29mn
Bit rate : 2 268 Kbps
Width : 1 024 pixels
Height : 576 pixels
Display aspect ratio : 16:9
Frame rate mode : Constant
Frame rate : 23.976 fps
Color space : YUV
Chroma subsampling : 4:2:0
Bit depth : 8 bits
Scan type : Progressive
Bits/(Pixel*Frame) : 0.160
Stream size : 1.38 GiB (71%)
Title : Enigma
Writing library : x264 core 133 r2334 a3ac64b
Encoding settings : cabac=1 / ref=9 / deblock=1:-2:-2 / analyse=0x3:0x113 / me=umh / subme=11 / psy=1 / psy_rd=1.00:0.10 / mixed_ref=1 / me_range=32 / chroma_me=1 / trellis=2 / 8x8dct=1 / cqm=0 / deadzone=21,11 / fast_pskip=0 / chroma_qp_offset=-3 / threads=12 / lookahead_threads=2 / sliced_threads=0 / nr=0 / decimate=0 / interlaced=0 / bluray_compat=0 / constrained_intra=0 / bframes=9 / b_pyramid=2 / b_adapt=2 / b_bias=0 / direct=3 / weightb=1 / open_gop=0 / weightp=2 / keyint=240 / keyint_min=23 / scenecut=40 / intra_refresh=0 / rc=2pass / mbtree=0 / bitrate=2268 / ratetol=1.0 / qcomp=0.60 / qpmin=0 / qpmax=69 / qpstep=4 / cplxblur=20.0 / qblur=0.5 / ip_ratio=1.40 / pb_ratio=1.30 / aq=1:1.00
Default : Yes
Forced : No
Color primaries : BT.709
Transfer characteristics : BT.709
Matrix coefficients : BT.709
Audio #1
ID : 2
Format : AC-3
Format/Info : Audio Coding 3
Mode extension : CM (complete main)
Format settings, Endianness : Big
Codec ID : A_AC3
Duration : 1h 29mn
Bit rate mode : Constant
Bit rate : 384 Kbps
Channel(s) : 6 channels
Channel positions : Front: L C R, Side: L R, LFE
Sampling rate : 48.0 KHz
Bit depth : 16 bits
Compression mode : Lossy
Stream size : 245 MiB (12%)
Title : DUB (iTunes)
Language : Russian
Default : Yes
Forced : No
Audio #2
ID : 3
Format : AC-3
Format/Info : Audio Coding 3
Mode extension : CM (complete main)
Format settings, Endianness : Big
Codec ID : A_AC3
Duration : 1h 29mn
Bit rate mode : Constant
Bit rate : 448 Kbps
Channel(s) : 6 channels
Channel positions : Front: L C R, Side: L R, LFE
Sampling rate : 48.0 KHz
Bit depth : 16 bits
Compression mode : Lossy
Stream size : 286 MiB (14%)
Language : English
Default : No
Forced : No
Text
ID : 4
Format : UTF-8
Codec ID : S_TEXT/UTF8
Codec ID/Info : UTF-8 Plain Text
Language : Russian
Default : No
Forced : No
Menu
00:00:00.000 : en:00:00:00.000
00:09:37.202 : en:00:09:37.202
00:19:58.030 : en:00:19:58.030
00:29:52.249 : en:00:29:52.249
00:38:48.409 : en:00:38:48.409
00:47:59.085 : en:00:47:59.085
01:00:39.010 : en:01:00:39.010
01:08:59.510 : en:01:08:59.510
01:19:59.753 : en:01:19:59.753
01:23:58.700 : en:01:23:58.700

Скриншоты

- - -

Создавать темы 01-Ноя-2014 23:58

[Профиль]  [ЛС] 

Топик был перенесен из форума Фильмы за 2014 (новинки) в форум HD-AVC
Иви

Создавать темы 02-Ноя-2014 11:06

 
Показать сообщения:    
Ответить на тему

Текущее время: 21-Сен 21:04

Часовой пояс: UTC + 5



Вы не можете начинать темы
Вы не можете отвечать на сообщения
Вы не можете редактировать свои сообщения
Вы не можете удалять свои сообщения
Вы не можете голосовать в опросах
Вы не можете прикреплять файлы к сообщениям
Вы не можете скачивать файлы