Трансформеры: Эпоха истребления / Transformers: Age of Extinction (Майкл Бэй / Michael Bay) [2014, США, Китай, фантастика, боевик, приключения, BDRip] [IMAX] Dub iTunes + Sub rus forced

Ответить на тему
 

iamleon5 ®

Стаж: 3 года 11 месяцев

Сообщений: 59

Симпатии: 50

Трансформеры: Эпоха истребления / Transformers: Age of Extinction
IMAX Edition
«Сражаться вместе... Или погибнуть вместе»
- Страна: США, Китай / Di Bonaventura Pictures, Hasbro Inc., Ian Bryce Productions, Paramount Pictures...
Жанр: фантастика, боевик, приключения
Год выпуска: 2014
Продолжительность: 02:45:07
Перевод: Профессиональный (дублированный) лицензия iTunes
Cубтитры: русские (forced) на надписи и китайскую речь (внешние)
Режиссёр: Майкл Бэй / Michael Bay
В ролях: Марк Уолберг, Никола Пельтц, Джек Рейнор, Стэнли Туччи, Келси Грэммер, Титус Уэлливер, ТиДжей Миллер, Ли Бинбин, София Майлс, Питер Каллен.
Описание: Автоботы и десептиконы оставили человечество собирать планету по кусочкам. Между тем группа могущественных бизнесменов и гениальных ученых пытается извлечь уроки из ошибок прошлого и улучшить технологии до такой степени, чтобы выйти за пределы контролируемого ранее. В это время другая группа — древних мощных трансформеров — берёт Землю под прицел.-Рейтинг
imdb.com: 6.0 (136 562)
kinopoisk.ru: 6.380 (39 913)
MPAA: - детям до 13 лет просмотр не желателен-Сэмпл: http://multi-up.com/1007650-Качество видео: BDRip [Transformers.Age.of.Extinction.2014.IMAX.BDRemux.mkv / kinozal]
Формат видео: AVI
Видео: XviD build 65, 720x384 (1.85:1), 23.976 fps, ~1497 kbps avg, 0.226 bit/pixel
Аудио: 48 kHz, AC3 Dolby Digital, 3/2 (L,C,R,l,r) + LFE ch, ~384 kbps avg (Dub)
Формат субтитров: softsub (SRT)-

MediaInfo:

Общее
Полное имя : H:\Torrent\Transformers.Age.of.Extinction.2014.IMAX.Dub.BDRip.2,18Gb.XviD.AC3_From Leon\Transformers.Age.of.Extinction.2014.IMAX.Dub.BDRip.2,18Gb.XviD.AC3_From Leon.avi
Формат : AVI
Формат/Информация : Audio Video Interleave
Профиль формата : OpenDML
Размер файла : 2,18 Гбайт
Продолжительность : 2 ч. 45 м.
Общий поток : 1893 Кбит/сек
Название фильма : Transformers: Age of Extinction 2014. [IMAX Edition]
Режиссёр : Michael Bay
Дата записи : 30.09.2014
Программа кодирования : VirtualDubModRus 1.5.10.2 (build 2542/release)
Библиотека кодирования : VirtualDubMod build 2542/release
Правообладатель : Rutracker.org
Примечание : MooN_WalkeR
Видео
Идентификатор : 0
Формат : MPEG-4 Visual
Профиль формата : Advanced [email protected]
Параметр BVOP формата : 1
Параметр QPel формата : Нет
Параметр GMC формата : Без точки перехода
Параметр матрицы формата : Выборочная
Идентификатор кодека : XVID
Идентификатор кодека/Подсказка : XviD
Продолжительность : 2 ч. 45 м.
Битрейт : 1497 Кбит/сек
Ширина : 720 пикселей
Высота : 384 пикселя
Соотношение сторон : 1,85:1
Частота кадров : 23,976 кадра/сек
Цветовое пространство : YUV
Субдискретизация насыщенности : 4:2:0
Битовая глубина : 8 бит
Тип развёртки : Прогрессивная
Метод сжатия : С потерями
Бит/(Пиксели*Кадры) : 0.226
Размер потока : 1,73 Гбайт (79%)
Библиотека кодирования : XviD 65
Аудио
Идентификатор : 1
Формат : AC-3
Формат/Информация : Audio Coding 3
Расширение режима : CM (complete main)
Параметр Endianness формата : Big
Идентификатор кодека : 2000
Продолжительность : 2 ч. 45 м.
Вид битрейта : Постоянный
Битрейт : 384 Кбит/сек
Каналы : 6 каналов
Расположение каналов : Front: L C R, Side: L R, LFE
Частота : 48,0 КГц
Битовая глубина : 16 бит
Метод сжатия : С потерями
Размер потока : 453 Мбайт (20%)
Выравнивание : Разделение по промежуткам
Продолжительность промежутка : 42 мс. (1,00 видеокадр)
Время предзагрузки промежутка : 500 мс.
Заголовок : Dub

Скриншоты:

Создавать темы 02-Ноя-2014 14:00

[Профиль]  [ЛС] 

iamleon5 ®

Стаж: 3 года 11 месяцев

Сообщений: 59

Симпатии: 50

начал смотреть фильм и сразу выявил нарушения,за что прошу прощения,качество видео не BDRip как было обещано и уж тем более не iMax,качество видео HDRip или WebDLRip сам понять не могу еще.Так же размер экрана меняется в некоторых моментах,но всяко лучше чем грёбаный Чистый Звук или Sat TS.
В общем извините меня за ложную информацию о фильме,мой косяк в том что я не проверил сам,а скорее выложил в сеть

Создавать темы 02-Ноя-2014 19:02

[Профиль]  [ЛС] 

PsiX

Стаж: 5 лет 10 месяцев

Сообщений: 77

Уже давно есть full HD, а тут только к обычному формату разродились

Создавать темы 02-Ноя-2014 19:12

[Профиль]  [ЛС] 

iamleon5 ®

Стаж: 3 года 11 месяцев

Сообщений: 59

Симпатии: 50

PsiX, Full HD свыше 8 гиг,это уже за облачно для 1 фильма

Создавать темы 03-Ноя-2014 01:07

[Профиль]  [ЛС] 

focusn1k

Стаж: 5 лет 1 месяц

Сообщений: 30

печалько скоро не будет интернета у нас

Создавать темы 05-Ноя-2014 21:58

[Профиль]  [ЛС] 
Показать сообщения:    
Ответить на тему

Текущее время: 21-Ноя 05:46

Часовой пояс: UTC + 5



Вы не можете начинать темы
Вы не можете отвечать на сообщения
Вы не можете редактировать свои сообщения
Вы не можете удалять свои сообщения
Вы не можете голосовать в опросах
Вы не можете прикреплять файлы к сообщениям
Вы не можете скачивать файлы