Люди Икс: Дни минувшего будущего 3D / X-Men: Days of Future Past 3D (Брайан Сингер) [2014 г., Фантастика, боевик, триллер, приключения, BDRip, 1080p, 3D]

Ответить на тему
 

utkir4891 ®

Стаж: 4 года 5 месяцев

Сообщений: 14

Симпатии: 12

Люди Икс: Дни минувшего будущего / X-Men: Days of Future Past- Год выпуска: 2014
Страна: США, Великобритания / 20th Century Fox Film Corporation
Жанр: Фантастика, боевик, триллер, приключения
Продолжительность: 02:11:35
Возраст: 12+
-Режиссер: Брайан Сингер
Продюсер: Саймон Кинберг, Хатч Паркер, Лорен Шулер Доннер
Актеры: Хью Джекман, Джеймс МакЭвой, Майкл Фассбендер, Дженнифер Лоуренс, Холли Берри, Николас Холт, Анна Пэкуин, Эллен Пейдж, Питер Динклэйдж, Шон Эшмор
-Описание: В недалёком будущем мутанты близки к истреблению роботами-охотниками на мутантов Стражами. Единственная надежда для мутантов выжить — предотвратить череду роковых событий, приведших к появлению Стражей. С помощью своих способностей, Китти Прайд перемещает сознание Росомахи в его молодое тело в 1973 год. В прошлом всё оказывается не так радужно: молодой Профессор Икс окончательно разочарован в своих идеях, Магнето содержится в тюрьме глубоко под землёй, а человечество не знает как реагировать на широкое появление мутантов…
-

Перевод: Дублированный (Blu-Ray 3D CEE)
Субтитры: Вшитые отключаемые / Отдельным файлом
Язык субтитров: Русский (forced)
Дата мировой премьеры: 10 мая 2014
Дата российской премьеры: 22 мая 2014, «Двадцатый Век Фокс СНГ»
Дата выхода DVD релиза: 2 октября 2014, «Двадцатый Век Фокс СНГ»
Дата выхода Blu-ray релиза: 2 октября 2014, «Двадцатый Век Фокс СНГ»
Рейтинг MPAA: PG-13
-Продолжительность: 02:11:35
Формат 3D: Вертикальная анаморфная стереопара
Качество видео: BDRip
Видеокодек: MPEG-4 AVC/H.264
Контейнер: MKV
Битрейт видео: ~18,4 Мбит/сек
Размер кадра: 1920x1080
Аудио 1: AC3 5.1, 640 kbps [Русский]
Аудио 2: AC3 5.1, 448 kbps [Украинский]
Аудио 3: AC3 5.1, 640 kbps [Английский]
- -

Скриншоты

MediaInfo

General
Unique ID : 178783421254493894766413159962973696228 (0x86806F3878223F54A0D08E58E96DF0E4)
Complete name : D:\X-Men days of future 3D\X-Men_Days_Of_Future_Past_3D.mkv
Format : Matroska
Format version : Version 2
File size : 18.5 GiB
Duration : 2h 11mn
Overall bit rate : 20.1 Mbps
Movie name : X-Men_Days_Of_Future_Past_3D_Crop_O/U
Encoded date : UTC 2014-10-03 23:54:39
Writing application : mkvmerge v5.7.0 ('The Whirlwind') built on Aug 7 2012 14:11:40
Writing library : libebml v1.2.3 + libmatroska v1.3.0
Video
ID : 1
Format : AVC
Format/Info : Advanced Video Codec
Format profile : [email protected]
Format settings, CABAC : Yes
Format settings, ReFrames : 4 frames
Codec ID : V_MPEG4/ISO/AVC
Duration : 2h 11mn
Bit rate : 18.4 Mbps
Width : 1 920 pixels
Height : 1 080 pixels
Display aspect ratio : 16:9
Frame rate mode : Constant
Frame rate : 23.976 fps
Color space : YUV
Chroma subsampling : 4:2:0
Bit depth : 8 bits
Scan type : Progressive
Bits/(Pixel*Frame) : 0.370
Stream size : 16.5 GiB (89%)
Title : rip by i/n
Writing library : x264 core 128 r2216M 198a7ea
Encoding settings : cabac=1 / ref=4 / deblock=1:-3:-3 / analyse=0x3:0x133 / me=umh / subme=10 / psy=1 / psy_rd=1.00:0.15 / mixed_ref=1 / me_range=32 / chroma_me=1 / trellis=2 / 8x8dct=1 / cqm=0 / deadzone=0,0 / fast_pskip=0 / chroma_qp_offset=-3 / threads=8 / lookahead_threads=1 / sliced_threads=0 / nr=0 / decimate=1 / interlaced=0 / bluray_compat=0 / constrained_intra=0 / bframes=8 / b_pyramid=2 / b_adapt=2 / b_bias=0 / direct=3 / weightb=1 / open_gop=0 / weightp=2 / keyint=230 / keyint_min=23 / scenecut=40 / intra_refresh=0 / rc_lookahead=60 / rc=2pass / mbtree=1 / bitrate=18400 / ratetol=1.0 / qcomp=0.60 / qpmin=0 / qpmax=69 / qpstep=4 / cplxblur=20.0 / qblur=0.5 / vbv_maxrate=40000 / vbv_bufsize=30000 / nal_hrd=none / ip_ratio=1.40 / aq=1:1.00
Default : Yes
Forced : No
Audio #1
ID : 2
Format : AC-3
Format/Info : Audio Coding 3
Mode extension : CM (complete main)
Format settings, Endianness : Big
Codec ID : A_AC3
Duration : 2h 11mn
Bit rate mode : Constant
Bit rate : 640 Kbps
Channel(s) : 6 channels
Channel positions : Front: L C R, Side: L R, LFE
Sampling rate : 48.0 KHz
Bit depth : 16 bits
Compression mode : Lossy
Stream size : 602 MiB (3%)
Title : Дубляж
Language : Russian
Default : Yes
Forced : No
Audio #2
ID : 3
Format : AC-3
Format/Info : Audio Coding 3
Mode extension : CM (complete main)
Format settings, Endianness : Big
Codec ID : A_AC3
Duration : 2h 11mn
Bit rate mode : Constant
Bit rate : 448 Kbps
Channel(s) : 6 channels
Channel positions : Front: L C R, Side: L R, LFE
Sampling rate : 48.0 KHz
Bit depth : 16 bits
Compression mode : Lossy
Stream size : 422 MiB (2%)
Title : Дубляж
Language : Ukrainian
Default : No
Forced : No
Audio #3
ID : 4
Format : AC-3
Format/Info : Audio Coding 3
Mode extension : CM (complete main)
Format settings, Endianness : Big
Codec ID : A_AC3
Duration : 2h 11mn
Bit rate mode : Constant
Bit rate : 640 Kbps
Channel(s) : 6 channels
Channel positions : Front: L C R, Side: L R, LFE
Sampling rate : 48.0 KHz
Bit depth : 16 bits
Compression mode : Lossy
Stream size : 602 MiB (3%)
Title : Original
Language : English
Default : No
Forced : No
Text
ID : 5
Format : UTF-8
Codec ID : S_TEXT/UTF8
Codec ID/Info : UTF-8 Plain Text
Title : Forced
Language : Russian
Default : Yes
Forced : No
Menu
00:00:00.000 : en:00:00:00.000
00:03:33.338 : en:00:03:33.338
00:08:00.689 : en:00:08:00.689
00:10:28.628 : en:00:10:28.628
00:13:58.046 : en:00:13:58.046
00:17:02.021 : en:00:17:02.021
00:20:16.090 : en:00:20:16.090
00:22:11.330 : en:00:22:11.330
00:26:37.888 : en:00:26:37.888
00:30:32.039 : en:00:30:32.039
00:34:29.776 : en:00:34:29.776
00:36:00.992 : en:00:36:00.992
00:38:18.087 : en:00:38:18.087
00:40:37.101 : en:00:40:37.101
00:45:53.793 : en:00:45:53.793
00:48:53.848 : en:00:48:53.848
00:51:58.157 : en:00:51:58.157
00:54:43.113 : en:00:54:43.113
00:57:51.426 : en:00:57:51.426
01:00:48.186 : en:01:00:48.186
01:03:26.594 : en:01:03:26.594
01:07:09.567 : en:01:07:09.567
01:09:43.596 : en:01:09:43.596
01:13:11.470 : en:01:13:11.470
01:15:31.861 : en:01:15:31.861
01:17:27.726 : en:01:17:27.726
01:19:30.099 : en:01:19:30.099
01:24:50.711 : en:01:24:50.711
01:26:58.255 : en:01:26:58.255
01:31:04.250 : en:01:31:04.250
01:34:03.680 : en:01:34:03.680
01:37:33.181 : en:01:37:33.181
01:41:54.817 : en:01:41:54.817
01:44:52.995 : en:01:44:52.995
01:47:19.808 : en:01:47:19.808
01:51:29.766 : en:01:51:29.766
01:56:42.746 : en:01:56:42.746
02:00:12.414 : en:02:00:12.414
02:02:34.973 : en:02:02:34.973
02:10:31.907 : en:02:10:31.907

Создавать темы 02-Ноя-2014 20:54

[Профиль]  [ЛС] 

djek

Стаж: 5 лет 11 месяцев

Сообщений: 90

Симпатии: 4

автору спасибо ! и отдельно спасибо за труд !!!

Создавать темы 02-Ноя-2014 23:46

[Профиль]  [ЛС] 

utkir4891 ®

Стаж: 4 года 5 месяцев

Сообщений: 14

Симпатии: 12

Унас света нету поэтому извенаюс

Создавать темы 03-Ноя-2014 20:36

[Профиль]  [ЛС] 

inception

Стаж: 5 лет 1 месяц

Сообщений: 7

Симпатии: 2

добавте новый человек паук 2 в 3Д если не трудно

Создавать темы 05-Ноя-2014 12:17

[Профиль]  [ЛС] 

nalsra

Стаж: 7 лет 4 месяца

Сообщений: 19

Симпатии: 7

Ну что свет дали, или можно удалять?

Создавать темы 15-Ноя-2014 10:04

[Профиль]  [ЛС] 

bandit

Стаж: 8 лет 10 месяцев

Сообщений: 37

Симпатии: 14

сегодня добьем. я докачиваю сам. сам позже и дораздам.

Создавать темы 15-Ноя-2014 10:11

[Профиль]  [ЛС] 

Шух

Стаж: 5 лет 10 месяцев

Сообщений: 8

Симпатии: 4

вот оно, зря качал 40 гиговый архив

Создавать темы 15-Ноя-2014 14:07

[Профиль]  [ЛС] 

MrJohn

Стаж: 3 года 11 месяцев

Сообщений: 8

Симпатии: 1

O'tkir здесь английский озвучка тоже есть или только русский?

Создавать темы 02-Дек-2014 15:22

[Профиль]  [ЛС] 
Показать сообщения:    
Ответить на тему

Текущее время: 18-Ноя 15:10

Часовой пояс: UTC + 5



Вы не можете начинать темы
Вы не можете отвечать на сообщения
Вы не можете редактировать свои сообщения
Вы не можете удалять свои сообщения
Вы не можете голосовать в опросах
Вы не можете прикреплять файлы к сообщениям
Вы не можете скачивать файлы